&title=for Victory!
&artist=ぶいすぽっ!
&first=0.96
&des_5=Ragna@ひななー
&lv_5=13
&des=Ragna@ひななー
&wholebpm=155
&demo_seek=55.4
&demo_len=29.4
&inote_5=(155){16}8,7,6,
5,1,2,3,4h[2:1],,,,,,,,8h[2:1],,,,
,,,,2h[2:1],,,,7,,7,6,5h[2:1],,,,4,,,,
3h[2:1],,,4,,,5,,6h[2:1],,,,5,,5,4,
3,,7,,18,,,,27,,36,,45,,3,4,
2,,6,5,7,,3,5,1,,6,4,8,,3,4,
1,,6,5,8,,2,5,1,,7,4,8,,2,4,{8}
1h[2:1],5,6,7,8h[8:3],4,3,2,
17,6,45,3,2-5[8:1]/8-5[8:1],,28,,{64}
6^1[2:1],4h,,,,,,,{8},,,,,,,
3h,4h,5h,6h,2,,2,,
3h,4h,5h,6h,2,,2,,
3h,4h,5h,6h,2,,2,{16}6h,3h,{8}
6h,5h,4h,3h,6h,5h,4h,3h,{4}
7h[8:1]/2pp5[2:1],7h[8:1],7h[8:1],7h[8:1],
6pp5[32:15]/4h[8:1],4h[8:1],4h[8:1],4h[8:1],
3-1[8:1]/6,3/8-4[8:1],2-6[8:1]/8,2/7-1[8:1],
5-1[8:1]/7,8w4[8:1]/5,8,2-6[8:1],{8}
8,8,5,4,3-5[8:1]/5,,5,6,
7-4[8:1],,4,3qq5[32:11],,5,6,7,
8-4[8:1],,3,2qq5[32:11],,5,6,7,
8w4[8:1],,,,6,7,1-5[8:1]/8,,
5qq5[4:1],,6,7,8-4[8:1],,4,3,
2^7[8:1],,7>4[4:1],,5,6,7h[4:1],,
5-1[8:1],,6,6h[4:1],,2,37,4V28[4:1]/8,
15,,,6,6^3[8:1],,3,,
1pp1[4:1],,,6,6^3[8:1],,3,,
1pp1[4:1],,,6,6^3[8:1],,3,,
1pp1[4:1],,,6,6^3[8:1],,3,,
1s5[4:1],,,6,6h[4:1],,8,,
1/7-3[8:1],,2-5[8:1]/7,,6-1[8:1]/2,,64,4,
4-1[8:1]/8,,7-4[8:1]/4,,8^3[8:1]/7,,86,6,{16}
6-8[8:1]/4,,,5,6,,2,,3-1[8:1]/5,,,4,3,,7,,
6-1[8:1]/4,,,5,6,,2,,3-8[8:1]/5,,,4,3,,7,,{8}
16,1,27,2,38,3,41,4,52,5,63,6,74,7,85,8,{16}
2,1,2,1,3,8,3,8,4,7,4,7,5,6,5,6,{32}
4,3,2,1,8,7,6,5,4,3,2,1,8,7,6,5,{4}8-4[8:1]/4-8[8:1],8b/4b,
1>8[2:3]/5h[64:1],6h[64:1],7h[64:1],8h[64:1],
1h[64:1],2h[64:1],3h[64:1],4h[64:1],
5<4[2:3]*<4[2:3]/1h[64:1],2h[64:1],3h[64:1],4h[64:1],
5h[64:1],6h[64:1],7h[64:1],8h[64:1],
1^4[16:9]/5h[64:1],6h[64:1],7h[64:1],8h[64:1],
1h[64:1]/5^8[16:9],2h[64:1],3h[64:1],4h[64:1],
5^8[16:9]*^8[16:9]/1h[64:1],2h[64:1],3h[64:1],4h[64:1],
5h[64:1]/1^4[16:9]*^4[16:9],6h[64:1],7h[64:1],8h[64:1],{16}
27,,3,4,3,,6,5,6,,3,4,3,,6,5,6,,3,4,3,,6,5,6,,2,,1,,8,,
27,,3,4,2,,6,5,7,,3,4,2,,6,5,
7-3[8:1],,,,2-6[8:1]/7b,,,,2b/8-5[8:1]*-3[8:1],,,,8b,,,,
2b/7b,,3,4,1,,6,5,8,,3,4,1,,6,5,8,,3,4,1,,6,5,8,,3,4,1,,7,,
4,5,4,5,2,5,2,5,4,5,4,5,1,5,1,5,4,5,4,5,8,5,8,5,4,5,4,5,7,5,7,5,
{1}4-1[32:15]*-7[32:15],{16}26,,3,4,3,,72,,6,5,6,,27,,18,,E
