&title=好きくない
&artist=ざんぎ
&first=0.000
&des=我就这样Oᴗoಣ
&wholebpm=190.000
&lv_5=13+
&des_5=我就这样Oᴗoಣ
&inote_5=(190){8}5qq5[4:1]*pp5[4:1],,,,,,Chf[8:8],,
,,,,{16}E7,E8,E1,E2,E3,,,,
{8}4p7[8:1],,5q2[8:1],,4p7[8:1],,5q2[8:1],,
4p7[8:1],,5q2[8:1],,4p7[8:1],,5q2[8:1],,
3>8[8:1],,6<1[8:1],,3>8[8:1],,6<1[8:1],,
3>8[8:1],,6<1[8:1],,3>8[8:1],,6<1[8:1],,
4qq2[8:1],,6pp8[8:1],,4qq2[8:1],,6pp8[8:1],,
4qq2[8:1],,6pp8[8:1],,4qq2[8:1],,6pp8[8:1],,
3qq1[8:1],,5pp7[8:1],,3qq1[8:1],,,,
7,16,25,25,25,25,25,Ch,
{16}2x-5[8:1],,,,2,,1,,2-4[8:1],,,,2,,1,,
{16}2-5[8:1],,,,2,,1,,{8}1qq7[8:1],8,2,3,
1pp3[8:1],,1,8,1pp2[8:1]*qq8[8:1],,1x,,
1x,,,2,1-3[8:1],8,1,,
{16}A8,E1,E2,A2,E8,B8,B2,E3,E7,B6,B4,E4,A6,E6,E5,A4,
A2,A3,A4,A5,E1,E2,E3,E4,A7,A6,A5,A4,E7,E6,E5,E4,
{8}1b,,1-6[8:1],2,1-3[8:1],,1,,
1b,,{16}A1,D1,A8,D8,A7,D7,A6,D6,A5,D5,A4,,
{8}Chf,,4,5h[8:1],,5,4,,
4b,5,4,5h[8:1],,5,4,,
4b,5,4,5h[8:1],,5,6,,
6b,5,6,5h[8:1],,5,{16}4x,,3bx,2bx,
{8}1bx,5,1,5h[8:1],,5,1,,
2b,6,2,6h[8:1],,6,2,,
1h[8:1],,5h[8:1],,4h[8:1],,7h[8:1],,
1bv8p1[4:1],,1,,A1f,,,,
{16}53,,2,,46,,7,,
53,,2,8,2,,8,,
37,,1,,2>4[8:1]/5<7[8:1],,6,,
5v3[8:1],,,,5bx,,,,
7,,5p4[4:1],,3,,1-5[8:1],,
,,1,,4x,,5x,,
6,,3,,17,,8,,
1b,,,,,,1,,
{16}82,,3,,17,,6,,
53,,2,8,2,,8,,
26,,4,,3>1[8:1]/8<6[8:1],,7,,
8v3[8:1],,,,8bx,,,,
6,,8p6[4:1],,2,,4v1[8:1],,
,,4,,5,,,,
8,,2,,46,,,,
1b,,,,1-4[8:1],,,,
{8}1bV72[8:1],,1v4[8:1],,1V37[8:1],,1V75[8:1],,
1bv6[8:1],,1-4[8:1],,1,,7-4[8:1],,
7bV58[8:1],,7v4[8:1],,7-2[8:1],,7V15[8:1],,
7bV13[8:1],,7-4[8:1],,7,,,,
{16}53,,1,,46,,8,,
53,,2,8,2,,8,,
37,,1,,2>4[8:1]/5<7[8:1],,6,,
5v3[8:1],,,,5bx,,,,
6>4[8:1],,4>2[8:1],,2<8[8:1],,8<6[8:1],,
,,4,,2,,7,,
8,,2,,46,,5,,
1b,,,,1,,,,
{8}4p7[8:1],,5q2[8:1],,4p7[8:1],,5q2[8:1],,
4p7[8:1],,5q2[8:1],,4p7[8:1],,5q2[8:1],,
3>8[8:1],,6<1[8:1],,3>8[8:1],,6<1[8:1],,
3>8[8:1],,6<1[8:1],,3>8[8:1],,D1f/6<1[8:1],,
3v1[8:1],,5v7[8:1],,3v1[8:1],,5v7[8:1],,
3v1[8:1],,5v7[8:1],,3v1[8:1],,5v7[8:1],,
4v2[8:1],,6v8[8:1],,4v2[8:1],,,,
A8hf,,,,,,,,
1bp5[4:6],,,,,,,,
8bq4[4:6],,,,,,,,
2xbq5[4:6],,,,,,,,
7xbpp4[4:6],,,,,,,,
2bx<8pp5[4:6],,,,,,,,
7bx>3qq5[4:6],,,,,,,,
2bxqq7pp4[4:6],,,,,,,,
E7f,,,,,,,,
{24}E5h[8:4]/A2f,D2,A1,{16}D1h[8:4]/E1h[8:5],,,,,,,,,,,,,,
{24}E3h[8:4]/A8f,D8,A7,{16}D7h[8:4]/E7h[8:5],,,,,,,,,,,,,,
{24}E1h[8:4]/A6f,D6,A5,{16}D5h[8:4]/E5h[8:5],,,,,,,,,,,,,,
{24}E5h[8:4]/A3f,A2,A1,{16}D1h[8:4]/E1h[8:5],,,,,,,,,,,,,,
{24}Ch[8:4]/A7f,A6,A5,{16}D5h[8:4]/E5h[8:5],,,,,,,,,,,,,,
{24}Ch[8:4]/A2f,A3,A4,{16}D5h[8:4]/E5h[8:5],,,,,,,,,,,,,,
{24}D1,E1,C,{16}B4h[8:3]/B5h[8:4]/E5h[8:5],,,,,,,,,,,,,,
{8}E3,,,,E7,,,,
{16}1-4[8:1],,,,1,,8,,1-3[8:1],,,,1,,8,,
{16}1-4[8:1],,,,1,,8,,1-7[8:1],,7-2[8:1],,1-5[8:1],,,,
{16}1x,,,,8<6[8:1],,7V13[4:1],,1x,,,,5x,,,,
{16}8,,,,,,7,,8-6[8:1],,1,,8,,,,
{16}2b,3,4,5,6,7,8,1,26,5,4,3,2,1,8,7,
62,3,4,5,1,2,3,4,8,1,2,3,7,8,1,2,
8x,4,8,4,1x,5,1,5,1x,2x,5x,6x,2x,3x,6x,7x,
{8}1bx,,{16}B8,E8,A7,A6,A5,C,B2,E3,A3,A4,A5,,
{8}8b,,4,6h[8:1],,5,4,,
4b,5,3,4h[8:1],,5,6,,
5b,4,5,4h[8:1],,5,6,,
6b,5,6,5h[8:1],,5,{16}4x,,3bx,2bx,
{8}1bx,5,1,5h[8:1],,5,1,,
8b,4,8,4h[8:1],,4,8,,
1h[8:1],,5h[8:1],,4h[8:1],,7h[8:1],,
{16}8,,,,,,,,2,3,4,5,7,6,2,1,
{8}Chf/8xV62[4:3],,,,,,,,
E8h[4:27],,,,,,,,
2b,,,,,,,,
2b,,,,,,,,
A2hf,,,,,,,,
2b,,,,,,,,
2b,,,,,,,,
2b,,,,,,,,
A2f/B7h[4:12],,,,,,,,
2b,,,,,,,,
2b,,,,,,,,
2b>5v4<7[4:3],,,,,,,,
2b>5v4<7[4:3],,,,,,,,
2b>5v4<7[4:3],,,,,,,,
A2f,,,,,,,,
,,,,,,,,
1-5[8:15]/8h[8:12],,,,,,,,
,,,,,,{24}1-5[8:1],2,3,4,,,
{16}1,,,,46,,7,,
53,,1,7,1,,7,,
25,,1,,8>3[8:1]/4<7[8:1],,7,,
8-4[8:1],,,,{32}8b,,,,,,,,
{16}53,,1,,46,,8V61[4:1],,
,,1,,3,,4,,
5-1[8:1],,7v4[8:1],,5,,7,,
{32}1b-5[8:1],8,7,6,5,4,3,2,{16}1,,,,
{16}53,,2,,46,,7,,
53,,2,8,2,,8,,
37,,2,,1-4[8:1],,,,
5v2[8:1]/1-6[8:1],,,,1bx/5x,,,,
{24}27,16,85,{8},E1,,E3,,E5,,
E7,,E5,,Cf,E1,,,
{24}72,83,14,{8},E1,,E7,,E5,,
E3,,E5,,Cf,,E1,,
{16}82,,3,,17,,6,,
53,,2,8,2,,8,,
26,,4,,3>1[8:1]/8<6[8:1],,1,,
8v3[8:1],,,,8bx,,,,
6,,5pp4[4:1],,4qq5[4:1],,5,,
,,,,,,,,
1/2b,,,,5/6b,,,,
7/8b,,,,3/4b,,,,
{8}
4v2[8:1],,5v7[8:1],,4v2[8:1],,5v7[8:1],,
4v2[8:1],,5v7[8:1],,4v2[8:1],,5v7[8:1],,
3V58[8:1],,6V41[8:1],,3V58[8:1],,6V41[8:1],,
3V58[8:1],,6V41[8:1],,3V58[8:1],,E5f/6V41[8:1],,
3V51[8:1],,6V48[8:1],,3V51[8:1],,6V48[8:1],,
3V51[8:1],,6V48[8:1],,3V51[8:1],,6V48[8:1],,
3V52[8:1],,6V47[8:1],,3V52[8:1],,6V47[8:1],,
A1f,,,,,,,,
Chf[1:1],,,,,,,{32}E3,E2,E1,E8,E7,
