&title=日常と地球の額縁
&artist=wowaka
&first=0
&des=【逃离不掉的日常】
&des_5=【逃离不掉的日常】
&lv_5=13+
&inote_5=(150){4},,,,{1}5h[1:1],
4h[1:1],
6h[1:1],
,4h[4:3]/6h[4:3],
5h[4:3]/2h[4:3],
3h[4:3]/7h[4:3],
{16}2,6,2,6,3,7,3,7,2-6[8:1],6,3,7,{4}2b,
{8}5/7,4,3/5,{16}2,4,2,4,{8}2,{4}3/5,
{8}3/5,6,5/7,{16}8,4,8,4,{8}8,{4}7/5,
{8}7/5,4,3/5,{16}2,4,3,4,{8}2,3/5,4/6,
5/7,8,7/4,{16}6,5,7,5,{8}6,{4}4/7,
{16}2,6,2,6,2,6,3,5,2,6,{8}3,{4}4/8,
{16}6,5,6,5,6,4,7,5,{8}6,7/3,{4}5/1,
{16}2,4,3,5,{8}4h[8:1],{16}7,5,6,4,{8}5h[8:1],1,1,
1/4,2/5,3/6,4/7,{16}4,8,4,8,4,8,4,8,
{4}4b,{8}3,3qq6[4:1],,7,{4}7,
8h[4:1],{8}5,5p3[4:1],,1,{4}1,
1h[4:1],{8}4,4qq5[4:1],,6,{4}7,
8h[4:1],{8}6,6pp4[4:1],5,4,3,2,
{4}1h[4:1],{8}6,7qq8[4:1],,1,{4}2,
4h[4:1],{8}6pp5[4:1],5,,3,{4}2,
{8}1,1,2/4,1,1,3/5,{16}2,4,2,4,
3,5,3,5,4,6,4,6,,7,{8}5,{4}6/4,
{8}5/3,6,4/7,{16}6,5,,5,{8}6h[8:1],{4}4,
{8}4/6,3,5/2,{16}3,4,,4,{8}3h[8:1],{4}6,
{8}2/8,7,1/6,{16}7,8,,8,{8}7,6,6,
1/7,2,8/3,{16}2,1,,1,{8}2,3/8,4,
5/7,6,5/2,{16}3,4,,4,{8}3,{4}2/5,
{8}5/3,6,4/7,{16}6,5,,5,{8}6,{4}4/7,
{16}6,5,{8}6,4/7,{16}3,4,{8}3,2/5,1h[8:1],{16}6,6,
1,5,1,5,2,6,2,6,3-7[8:1],7,2,6,{4}3,
{2}5<2[2:1],2<5[2:1],
5qq8[2:1],1h[4:1],
6/4>7[2:1],7>4[2:1],
4pp1[2:1],8h[4:1],
{8}3/5<2[2:1],{4},{8}3,2<5[2:1],{4},{8}4,
{4}5pp4[2:1],4,{2}2h[4:1],
{8}6/4>7[2:1],{4},{8}6,7>4[2:1],{4},{8}5,
{4}4qq5[2:1],6,{2}8h[4:1],
{4}3/5<3[2:1],4,{8}3>5[2:1],4,{4}4,
5pp8[2:1],3,{8}2,3,{4}4,
6/4>6[2:1],5,{8}6<4[2:1],5,{4}5,
4,5,{8}6/4,7,5,{16}8,8,
{4}5>2[4:1],6,6<2[4:1],2v4[16:3],
{2}3h[4:1],{8}3/6,{16}4,5,4,5,4,5,
{1}6/3h[8:7],
{4}4-8[8:3],{2},{4}1b,
{8}6/2-5[8:1],4,2/8,6,{4}4/8>3[8:1]*<5[8:1],8,
{8}1/7v4[8:1],5,7/3,2,{4}1v4[8:1]/5-8[8:1],5/1,
{8}2-6[8:1],5,7,1-5[8:1],5,3,8h[8:3],6,
,5,1-5[8:1]/6-8[8:1],3,{4}1/6>1[8:1],7,
{8}2/8-4[8:1],6,8/3,1,{4}2-5[8:1]/6-2[8:1],2/6,
{8}8/4-8[8:1],2,4/6,7,{4}1v4[8:1]/5q1[8:1],1/5,
{8}7-3[8:1],4,2,8-4[8:1],4,6,1,3h[4:1],
,5,{4}6h[4:1],{16}3,7,3,7,4,8,4,8,
{8}5>2[8:1],3,5/7-3[8:1],8,{4}7/1<6[8:1]*>4[8:1],1,
{8}3/7<4[8:1],5,7/1-5[8:1],8,{4}1<6[8:1]/5>2[8:1],1/5,
1-5[8:1],{8}1/6,7<4[8:1],,7/4,{4}3-8[8:1],
{8}3/6,5-1[8:1],,5/3,{4}4w8[8:1],4,
{8}6/2>5[8:1],1,2/8-4[8:1],7,{4}8<5[8:1]*>3[8:1],8,
{32}1b,2,3,4,5,6,7,8,{4}1h[4:1],{8}6,7,8-4[8:1],8,
4,2,8-4[8:1],8,5,6,4/8,4/8,
2/6,{16}1,1,{8}5h[8:1],{16}1,1,{8}5h[8:1],{16}1,1,6,6,{24}2,3,4,
{4}5/8b,{8}4/6h[8:1],3,5/2h[8:1],6,3/7h[8:1],2,
{16}1,6,4,8,2<4[4:1],5,3,7,{4},8h[4:1],
{24}1,2,3,8,7,6,2,3,4,7,6,5,1,2,3,7,6,5,2,3,4,8,7,6,
4,3,2,7,6,5,3,2,1,8-4[8:1],{16},,,{48},{8}5,{4}7h[4:1],
{8}1,{16}3,4,{8}3,2/5,7/4,{16}6,5,{8}6,7/4,
{16}8h[8:1]/4h[8:1],{8},{16}5h[8:1]/7h[8:1],{8},6h[8:1]/4h[8:1],,5/3,2/4,1,
{16}2h[8:1]/5h[8:1],{8},{16}3h[8:1]/6h[8:1],{8},4h[8:1]/7h[8:1],{16},5h[8:1]/8h[8:1],{8},{4}7h[8:1]/3h[8:1],
{8}2b/6b,{16}1,5,1,5,1,5,2,6,3,7,4,6,2,8,
{1}4h[1:1],
6h[1:1],
1h[1:1],
,3/5h[4:3],
6/2h[4:3],
4/8h[1:1],
{8}2,{4},{8}4,{2},{8}4h[16:1],
4h[16:1],5h[16:1],5h[16:1],4h[16:1],4h[16:1],5h[16:1],5h[16:1],
3h[16:1],3h[16:1],6h[16:1],6h[16:1],3h[16:1],3h[16:1],6h[16:1],6h[16:1],
2h[16:1],2h[16:1],7h[16:1],7h[16:1],2h[16:1],2h[16:1],7h[16:1],7h[16:1],
3h[16:1],3h[16:1],6h[16:1],6h[16:1],3h[16:1],3h[16:1],6h[16:1],6h[16:1],
{16}4,5,4,5,4,5,4,5,3,6,3,6,3,6,3,6,
2,7,2,7,2,7,2,7,1,8,1,8,1,8,1,8,
{1}2b/7h[8:7],
1-5[4:3],
,{8}3b/8b<5[8:1],
6/4,8/2,1,4/8-3[8:1]*-5[8:1],7,{4}8,
{8}7/1-5[8:1],5-2[8:1],1/7,6,8>3[8:1]*<5[8:1],1/7,{4}8,
{8}2V46[8:1],5,7,1V75[8:1],4,2,3,6/1h[4:1],
7,8,6/2<4[16:3],4,{4}2/8v5[8:1]*q4[8:1],8,
{8}7/1q5[8:1],3/5,1/7,8,1>4[8:1]*<6[8:1],2,{4}1,
{8}2/8V64[8:1],4-7[8:1],8/2,3,1p5[8:1]*v4[8:1],8,{4}1,
{8}6V82[8:1],1,3,5V31[8:1],8,6,7,2/5h[4:1],
,3,{4}2h[8:1]/6h[8:1],{16}2,6,2,6,1,5,3,7,
{8}1b>4[8:1],{24}7,6,5,{8}1,7,1-6[8:1]/5-1[8:1],3/7,{4}1/5,
{8}2/8-4[8:1],6/4-7[8:1],8/2,3,1>4[8:1]*<6[8:1],3/7,{4}1,
{8}1V35[8:1],8,1/6,7-4[8:1],,7/4,{4}3>8[8:1],
{8}3/6,5V71[8:1],4,5/3,{4}4w8[8:1],4b,
{8}2>5[8:1],{24}8,7,6,{8}2,8,1q5[8:1]*v6[8:1],3/7,{4}1,
{32}1b,2,3,4,5,6,7,8,{4}5b/1h[4:1],{8}6,7,8b-4[8:1],8b,
4,2,8b-4[8:1],8b,6,7,4/8,4/8,
2/6,{16}1,1,{8}5h[8:1],{16}8,8,{8}6h[8:1],{16}1,1,7,7,{24}2,3,4,
{8}8b/5h[8:7],{4},,,{8}1b,
