&title=raspberry cube
&artist=松下
&first=0
&des=因幡 めぐる
&lv_5=14.0
&des_5=因幡 めぐる
&inote_5=
(145){4},{8},,6h[8:1]/1>5[8:1],,,8b,
{16}8b,2,7,2,{8}7,3b,{16}3b,5,4,5,{8}4,6/5,
6/5,{16}1,2,,,{8}4/3,4/3,{16}7,8,,,8/4,7/3,
{8}2/6p2<4b[8:3],{32},,,,,,,,,,,,,,,,1,2,{16}3,{8}Cf,8-6[8:1],
{16}2,3,{8}8b-4[8:1],{16}3,4,{8}8V26[8:1],{16}2,3,,,,,{8}1-3[8:1],
{16}7,6,{8}1b-5[8:1],{16}6,5,{8}1V73b[8:1],{16}7,6,{8}5b,,5-1[8:1],
5,2-6[8:1],2,7-3[8:1],7,4-8[8:1],{16}4,6,{8}6b-2[8:1],
2-8[8:1],8-6[8:1],{4}6V42[4:1],{8}1,8,7,{16}4b,5b,
,,,,{8}7/2,{16}8b-4[8:1],1,{8}2-4[8:1],8,{4}2,
{16}6,5,,5,{8}6-8[8:1],2-4[8:1],6-4[8:1],2-8[8:1],6,2b,
{16}5,5,,1,{8}1-3[8:1],4,{16}1<3[4:1],7,{8}6,,,8-4[8:1],
{16}8,1-5[8:1],,1,,,{8}8qq5[4:1],7,{16}8b,1,,,,,4,
5,,,1-5[8:1],2,{8}3,{16}1/8-4[8:1],7,{4}6,
{8}2,6/4,7,5-8[8:1]/3v8[8:1],4,5/3,,5pp5[4:1],
8,5qq5[4:1],{4}2,1,{8}7b/3b,{16}2,1,
{8}2,{16}7,8,{8}7,8-4[8:1],7,3-1[8:1],2,{16}3,4,
,,{8}8b/4b,{16}7-3[8:1],6,{8}5,{16}7/8-4[8:1],1,{8}2,{4}8,
{8}1<5[8:1],5>1[8:1],{16},,,,8,8,,2,{8}2,8h[8:1],
1h[8:1],2h[8:1],3h[8:1],4h[8:1],{4}5<8[8:1]*>2[8:1],5b,
{16}8,1,8,2,{8}8,7,{16}7,8,,8,{8}1,8bw4b[8:1],
,Cf,,6/2,6v8[8:1]/2v4[8:1],5/3,{4}6b/2b,
{16}8-5[8:1],1,,1,{4}8,{16}6,5,,5,{8}4,4b-8b[8:1],
{2}2b-6b[8:1],{4}5/4,2bv7[4:1]/7b<2[4:1],
{32},,,,,,,,,,,,E8,E1,{16}E2,8/1,8/1,8/1,8/1,,,7,8,
,6,{8}5,{16}3,4,,2,1,3,1,4,1,5,1,6,
1,7,1,{32}8,1,2,3,4,5,6,7,8,1,2,3,4,5,6,7,8,1,{8}2,8-6[8:1],
1-3[8:1],8-4[8:1],1-5[8:1],8-6[8:1],1-3[8:1],8b,{4}1b,
{8}E8,E6,E4,E2f,,8b/1b,{16},,3,4,
,2,{8}1,{16}5-1[8:1],4,,4,{4}5,{8}3-8[8:1],8-3[8:1],
3-6[8:1],6<4[4:1],,,,,6/3,{16}7,8,
,6,{8}5,{16}8,1,{8}7/2,{4}8-5[8:1],{8}8-3[8:1],4,
{4}8w4[8:1],8b,{8}6/2,1/8bh[4:1],,1,
{16}8,8,2,2,{8}6-8[8:1],5-1[8:1],6,5,7b,2b/8b,
{16}1,1,7,7,{8}3-1[8:1],4-8[8:1],3,4,1,3,
8b/4b,6b/2b,{16}8,1,7,2,6,3,5,4,5,3,6,2,
{8}7V13[8:1],3V57[8:1],{16},,,,,,2,2h[16:3],,,,1,
,3,{8}4,{16}4-8[8:1],5,,5,{4}4,{8}6-1[8:1],1-6[8:1],
6-3[8:1],3>5[4:1],,,,,6/3,{16}7,8,
,6,{8}5,{16}8,1,{8}7/2,{4}8-5[8:1],{8}8-3[8:1],4,
{4}8w4[8:1],8b,{8}6/2,{16}5,4,5-1[8:1],4,5,4,
{8}5,2-6[8:1],3/1,2b,{16}8,7,6,5,1,2,3,4,
5,4,5,4,{4}3b/6b-1[8:1],{8}6,2-5[8:1],3,2,
8,7qq8[4:1]/3qq4[4:1],,7/3,,,7<4[8:1],6,
7/1-5[8:1],3,1/8-4[8:1],6,{4}8/1qq3[4:1],1b,
{8}7,6,5,{16}1,2,3,4,7,5,6-1[8:1],5,6,5,
{4}6,{8}8-5[8:1],{16}4-1[8:1],3,{8}8/2,4,{16}6,6,2-5[8:1],2,
8-5[8:1],8,{8}2b,8b,{16}4,3,{8}2pp4[8:1],{16}8,7,{4}6bpp8[8:1],
{8}6b,{32}1,2,3,4,5,6,7,8,{8}1-5[8:1],5-1[8:1],{16}8,7,{8}6,{16}8,7,
6,2,2,3,3,4,4,5,5,6,6,7,7<5[8:1],8,1,2,
3<5[8:1],2,1,8,{4}7<5[8:1],{16}1,1,2,3,8,8,1,1,
7,7,2,2,6,6,3,3,5,5,4,4,5,4,5,4,
5,3,6,2,{32}7,8x,1x,8x,1x,8x,1x,8x,1x-5[8:1],7x,2x,6x,3x,5x,{16}4x,{4}1bx,
{2}Ch[2:1],{4}8-4[8:1],8,
{2}Ch[2:1],{8}1,1-5[8:1],,1,
{4}8,8qq5[2:1],{8}8,1,,1pp4[2:1],
,1,{4}8,8,{8}8b,8,
8<5[8:1],8,8/1,1,1,1,1>4[8:1],1,
{4}1/5w1[8:1],5b,{8}8bx/2bx,7b/3b,{4}6bpp5b[4:1]/4bqq5b[4:1],
{8},,,6h[8:1],4h[8:1],8h[8:1],2h[8:1],7h[8:1],
1h[8:1],5h[8:1],3h[8:1],{16}8,7,6,5,{32}1,2,3,4,5,6,7,8,{8}1-3[8:1],
8-6[8:1],1-5[8:1],8-4[8:1],1-3[8:1],8-6[8:1],1b,{4}8b,
{8}E1,E7,E5,E3,Cfh[8:1],B7/B6/E7/B2/B3/E3,{16},,6,4,
,5,{8}3-8[8:1],{16}3,4,{8}3,7-4[8:1],6,7-3[8:1],2-6[8:1],
,,8b,8-4[8:1],,Cf,2b,{16}1,7,
,2,{8}8-5[8:1],{16}8,1,{8}8,1-4[8:1],2,1-5[8:1],6-2[8:1],
,,4bw8b[8:1],4b,{16}Cf,B7/B8/B1,,,{8}7/2,{16}7/2,6,
{8}5-1[8:1],{16}3-6[8:1],4,{8}5,3,8b,4b,6/3,{16}6/3,7,
{8}8-4[8:1],{16}2-7[8:1],1,{8}8,2,5b,1b,7/3,5/1,
8b/4b,6b/2b,5-8[8:1]/4-1[8:1],8-5[8:1]/1-4[8:1],{2}5pp4[4:1]/4qq5[4:1],
{8},7p2[8:1],{4}2q7[8:1],{16}3,3,4,6,6,5,1,2,
,8,{8}7-4[8:1],{16}7,2,{8}7,1<5[8:1],5>1[8:1],,1,
8qq4[4:1],8,{4}8b,{8},,6/3,{16}5,6,
,4,{8}3-8[8:1],{16}3,6,{8}3,5>1[8:1],1<5[8:1],,5,
4qq8[4:1],4,{4}4b,{8},,8p3[8:1]/7<4[8:1],1/2,
{4}8/7,{8}1q6[8:1]/2>5[8:1],8/7,{4}1/2,8-6[8:1]*-5[8:1],
8-2[8:1]*-3[8:1],8b,{32}8bx,7bx,6bx,5bx,4bx,3bx,2bx,1bx,{8}8bx,{16}4,5,
4,5,4,5,4,8,1,7,2,6,3,5,{8}4/6,1,
5/3,8,1w5[8:1],2/8,{4}1,3bh[4:1]/7bh[2:1],
{16},,,,,,7,5,6,4,5,3,{8}4-7[8:1],8-3[8:1],
4b,8b,6,5-8[8:1],5,5,1-5[8:1],3,
1/8-4[8:1],6,{4}8<5[8:1]/4>1[8:1],8q1[4:1],{8}Cf,5,
{16}5,6,{8}6,7/2,6/3,{16}8,1,,,{8}6/3,7/2,
{16}4,5,,,{8}8/1-5[8:1],8/1,{16}1,8,,,6,4,{8}3bh[8:1]/7bh[8:1],
{16},8,1,8,1,8,{8}1,8,1,{4}7bh[16:25]/3bh[16:25],
{1},{4},{8},{16}2/6,
1/5,{2}8/4,
E
