&title=WAVE
&artist=niki feat. Lily
&first=0
&des_1=
&des_2=
&des_3=
&des_4=
&des_5=lost in nowhere
&lv_5=13+
&des_6=
&des_7=
&des=lost in nowhere
&inote_5=(130)
{1},,,,,,
{4}
4/6-4[8:1],3h[8:1],4-6[8:1],4hx[8:1],
5/7-5[8:1],3h[8:1],4-7[8:1],4hx[8:1],
5/3-5[8:1],6h[8:1],5-3[8:1],5hx[8:1],
7/6x,2/3x,4-1[16:1]/5-8[16:1],,
{16}
6,5,7,,3,4,2,,5^8[8:1],4,7,2,,,,,
2v1[8:1],5,4,8,2,,,,6v8[8:1],4,5,1,6,,,,
3,4,2,,6,5,7,,4^1[8:1],5,2,7,,,,,
7v8[8:1],4,5,1,7,,,,3v1[8:1],5,4,8,3,,7x,,
6,6,8,8,7h[8:1],,1,1,8V64[16:3]*^5[8:1],,2,2,8,,,,
3v8[8:1],4,2,4,3,,,,6v1[8:1],5,7,5,6,,,,
3,3,1,1,2h[8:1],,8,8,1V35[16:3]*^4[8:1],,7,7,1,,,,
7v4[8:1],8,6,8,7,,,,2qq4[8:2],1,3,1,2,,,,
{8}
6,,6,,6,,6,,
6<1[8:1],,2>5[8:1],,8-4[8:1],,E3,,3,,3,,3,,3,,
3/4,,4/5,,6/5,
{24}4,5,3,
{8}4h[8:1],B1,
{16}
2x/4x,,5,5,3-5[16:1],,5,,7-3[8:1],,8,,4,,5,,
6/4,,3,3,5-3[16:1],,3,,1-5[8:1],,8,,4,,6,,
7/5,,4,4,6-4[16:1],,4,,2-6[8:1],,3,,5,,8,,
7/1,,6,6,4-6[16:1],,6,,8-4[8:1],,,,8/2qq6[2:1],,,,
{4}
4,4,4,4,
4h[8:1]/3h[8:1],4h[8:1]/5h[8:1],5h[8:1]/2h[8:1],
{8}4h[8:1]/7h[8:1],,
{16}
1b/2b-5[8:1],,3,8,2,,8,,6-1[8:1]/4,,7,,5/6,,2,,
7b-4[8:1],,6,8,7,,1,,3-8[8:1]/5,,2,,4/3,,6,,
1b/7b,,6^3[8:1],8,,8,6,,1-6[8:1],,2-5[8:1],,1b,,2b,,
7b,,6^3[8:1],8,,8,6,,1-5[8:1],,2/8,,1b,,6,,
7/8,,6,6,,3,4,,2^5[8:1],,5-1[8:1],,2,,7,,
8,,3,3,,6,5,,6V85[8:2],,7,,5-1[8:1],,4,,
3b,,2,2,,6,5,,7V53[8:1],,3^2v8^7[16:3],,7,,1x,,
5x,,3,3,,6,5,,7-3[8:1],,1-5[8:1],,7,,1,,
{8}
8<1[4:1],,Cf,,8<1[4:1],,Cf,,
3x-7[8:1],,6x-1[8:1],,4-8[16:1],,Ch[8:1],,
2b/6bz2[2:1],,,,,,,1,
3bs7[2:1]/7b,,,,,,,8,
2bz6[2:1]/6bz2[2:1],,,,,,,,
E7hf[4:3],,Chf[4:2],,E3hf[4:1],,,,
{16}
7,7,5,6,1h[8:1],,8,8,2,2,4,3,8bh[8:1],,1x,,
2,4,3,6,5,7,4,5,3-8-2[32:5],4,2,5,,,,,
7,7,8,6,5h[8:1],,8,8,2,2,1,3,7bhx[8:1],,8,,
1,6,4,6,2,6,4,6,3,7,5,7,3h[8:1],,1x,1x,
1x,2,4,3,8,1,6,5,1V74[16:3]*-6-4[16:3],2,4,3,,,,,
2-5-1[16:3],5,1,6,2,,,,7-4-8[16:3],4,8,3,7,,,,
3,3,4,2,8h[8:1],,1,1,6,6,5,7,1bh[8:1],,8x,,
3p6[16:2],6,4,5,,,,,5,5,4,4,3x/6x,,3x/6x,,
{4}
5,5,5,5,
5h[8:1]/6h[8:1],5h[8:1]/4h[8:1],4h[8:1]/7h[8:1],5h[8:1]/2h[8:1],
{16}
8b/2b-4[8:1],,4-8[8:1],6,2,,8,,6-2[16:2],,5,,3,,5,,
1b/7b-5[8:1],,5-1[8:1],3,7,,1,,3-7[16:2],,4,,6,,4,,
6b/8b,,6^3[8:1],8,,8,6,,1^6b[8:1],,2^5b[8:1],,1b,,2b,,
6b,,7^4[8:1],8,,8,7,,1-5[8:1],,2/8,,1b,,7,,
2/1,,3,3,,6,5,,7^4[8:1],,4-8[8:1],,7,,2,,
1,,6,6,,3,4,,3V14[8:2],,2,,4-8[8:1],,5,,
6b/Cf,,6,6,,3,4,,2V46[8:1],,6^7v1^2[16:3],,2,,8x,,
4x,,6,6,,3,4,,2w6[8:1],,1/3,,2b,,,,
{8}
4>1[8:1]/8<5[8:1],,4b/8b,,
4>1[8:1]/8<5[8:1],,4b/8b,,
8/4<7[8:1],,8>3b[8:1]/4,,5w1[8:1]/8,,5b,,
3p7[8:1]/7p3[8:1],,Cf,,3p7[8:1]/7p3[8:1],,Cf,,
4/8>3[8:1],,4<7b[8:1]/8,,1w5[8:1]/4,,1b,,
{16}
7/4,,2,4,3,6,5,,1/7,,3,,1/7,,5,,
3/4,,7,5,6,3,4,,8/2,,6,,8/2,,4,,
7,4,5,2,7,4,5,2,7z3[16:3],4,5,2,,,,,
2,5,4,7,2,5,4,7,2,5,4,7,1,,8/6,,
7/1,,2,4,3,6,5,,1/7,,3,,1/7,,5,,
3/4,,7,5,6,3,4,,8/2,,6,,8/2,,4,,
7,4,5,2,7,4,5,2,7z3[16:3],4,5,2,,,,,
2,5,4,7,2,5,4,7,2,5,4,7,3,,1b-7v6[8:31]/7b,,
8b/2bv3-5[4:15],
E
