&title=「越过环形山」
&artist=巡月者-Studio
&first=0.950
&des=雨随风落
&clock_count=4
&lv_5=13
&des_5=
&inote_5=(130)
{16},,,,
,,,,
E7,,E6,,
E5,,E4h[8:5],,
{16},,,,
,,,,
7>2p4[4:2],,,,
,,,,
{16},,,,
3h[4:2],,,,
E3,,E4,,
E5,,E6h[8:5],,
{16},,,,
,,,,
2<7q5[4:2],,,,
,,,,
{16},,,,
,,,,
7,,6,,
5,,4h[8:3],,
{16},,,,
7q5>8[4:3],,,,
7h[4:3],,,,
,,,,
{16},,,,
,,,,
7,,6,,
5,,4,,
{16}3h[4:1],,,,
4h[4:1],,,,
5>8q6[4:2],,,,
,,,,
{16},,,,
,,,,
7b,,8,,
1,,2h[8:5],,
{16},,,,
,,,,
7q5[4:2]*>4[4:2],,,,
,,,,
{16},,,,
,,,,
6,,5,,
4,,3h[8:5],,
{16},,,,
,,,,
5p7[4:2]*>8[4:2],,,,
,,,,
{16},,,,
,,,,
2,,3,,
4,,5h[8:3],,
{16},,,,
1p3<8[4:3]*p3<8[4:3],,,,
2h[4:3],,,,
,,,,
{16},,,,
,,,,
7,,6,,
5,,4,,
{16}3h[4:1],,,,
5h[4:1],,,,
2>5p1[4:2]*>5p1[4:2],,,,
,,,,
{16},,,,
,,,,
5b,,4,,
5,,4,,
{16}5,,3,,
5,,3,,
53,,,,
5,,3,,
{16}5,,3,,
53,,,,
4,,5,,
4,,5,,
{16}4,,6,,
4,,,,
54,,,,
4,,6,,
{16}4,,6,,
64,,,,
6,,5,,
6,,5,,
{16}6,,4,,
6,,4,,
6,,,,
6,,4,,
{16}6,,4,,
46,,,,
6,,5,,
4,,3,,
{16}3,,5,,
3,,,,
53,,,,
3,,5,,
{16}3,,5,,
35,,,,
2/1<4[4:3],,,,
2,,,,
{16}2h[8:1],,,,
2h[8:1],,,,
2,,,,
3,,5,,
{16}4,,7,,
75,,,,
8>5[4:3]/7,,,,
7,,,,
{16}7h[8:1],,,,
7,,,,
7,,,,
6,,4,,
{16}5,,2,,
24,,,,
2x,,2,,
3,,4,,
{16}3x,,3,,
4,,5,,
4x,,4h[4:1],,
5,,6,,
{16}5x,,5h[4:1],,
6,,7,,
48,,8,,
7,,63,,
{16}2,,25,,
1>6p8[4:3],,8,,
1/7h[8:6],,,,
,,,,
{16},,,,
,,,,
7-5[8:1],,7,,
4,,4,,
{16}3-1[8:1],,3,,
8,,8,,
6-4[8:1],,6,,
3,,3,,
{16}2,,3,,
4,,5,,
6-8[8:1],,6,,
1,,1,,
{16}2-4[8:1],,2,,
5,,5,,
7-1[8:1],,7,,
2,,2,,
{16}3,,4,,
5,,6,,
7>1[8:1],,7,,
2,,2,,
{16}3<5[8:1],,3,,
6,,6,,
8>2[8:1],,8,,
3,,3,,
{16}4,,5,,
6,,7,,
8<6[8:1],,8,,
4,,4,,
{16}3>1[8:1],,3,,
5,,5,,
1,,2,,
3,,4,,
{16}5,,6,,
7,,8,,
1>3[8:1],,1,,
4,,5,,
{16}6<8[8:1],,6,,
1,,2,,
3<5[8:1],,3,,
8,,7,,
{16}6-2[8:1],,6,,
4,,4,,
3<5[8:1],,3,,
2,,1,,
{16}8<6[8:1],,8,,
5,,4,,
3>1[8:1],,3,,
5,,4,,
{16}1-5[8:1],,1,,
6,,6,,
7x<5[8:1],,7x,,
4,,3,,
{16}4xq8[8:1],,4x,,
3,,2,,
1>3[8:1],,1,,
8,,7,,
{16}8-4[8:1],,8,,
2,,2,,
53,,6,,
24,,1,,
{16}64,,7,,
53,,2,,
5,,6,,
7,,8,,
{16}1,,2,,
3,,4,,
5b<8[8:1],,64,,
3,,3,,
{16}2>5[8:1],,31,,
8,,8,,
75,,6,,
24,,3,,
{16}85,,6,,
14,,3,,
7<4[8:1],,86,,
1,,1,,
{16}2<7[8:1],,13,,
4,,4,,
75,,6,,
35,,4,,
{16}85,,6,,
25,,4,,
7>2[8:1],,65,,
4,,4,,
{16}3<6[8:1],,21,,
8,,8,,
7,,86,,
1,,82,,
{16}6,,85,,
2,,38,,
7<4[8:1],,68,,
2,,2,,
{16}3>8[8:1],,54,,
6,,6,,
8,,75,,
64,,35,,
{16}7,,64,,
53,,42,,
1-5[8:1],,24,,
6,,6,,
{16}7-4[8:1],,65,,
3,,3,,
2h[4:1],,4,,
1h[4:1],,4,,
{16}2h[4:1],,4,,
1h[4:1],,4,,
2-5[8:1],,4x/3x,,
6,,6,,
{16}8-4[8:1],,75,,
3,,3,,
1h[4:1],,5,,
8h[4:1],,5,,
{16}1h[4:1],,5,,
8h[4:1],,5,,
1q5[8:1],,2x/4x,,
6,,6,,
{16}7<4[8:1],,81,,
3,,3,,
2h[4:1],,4,,
6h[4:1],,4,,
{16}2h[4:1],,4,,
6h[4:1],,4,,
3,,35,,
6,,74,,
{16}2,,51,,
5,,64,,
1b/8b,,72,,
63,,54,,
{16}12,,83,,
74,,65,,
7q5>1[4:3]/4h[4:4],,,,
,,,,
{16},,,,
,,,,
,,,,
,,,,
{16},,,,
3,,,,
2q8<3[4:3]/4h[4:4],,,,
,,,,
{16},,,,
,,,,
,,,,
,,,,
{16},,,,
,,,,
6V82p4b[4:6]/3h[4:7],,,,
,,,,
{16},,,,
,,,,
,,,,
,,,,
{16},,,,
,,,,
3>7q4[4:5]/5h[4:6],,,,
,,,,
{16},,,,
,,,,
,,,,
,,,,
{16},,,,
,,,,
6<1p5[4:6],,,,
,,,,
{16},,,,
,,,,
,,,,
,,,,
{16},,,,
,,,,
3>8q4[4:6],,,,
,,,,
{16},,,,
,,,,
,,,,
,,,,
{16},,,,
,,,,
6V82p5[4:7],,,,
,,,,
{16},,,,
,,,,
,,,,
,,,,
{16},,,,
,,,,
4>1q5[4:3],,,,
,,,,
{16},,,,
,,,,
{4}
