&title=Bergentrückung
&artist=Toby Fox
&first=0.11
&des=slug
&lv_5=14
&inote_5=(114.5)
{4}
6h[8:1]/3h[8:1],6h[8:1]/4h[8:1],6h[4:1]/5<2[4:1],,
4h[8:1],3h[8:1]/5h[8:1],3h[4:1]/4>7[4:1],,
5h[8:1],4h[8:1]/6h[8:1],3pp6[4:1]/7-1[8:1],,
2h[8:1],3h[8:1]/1h[8:1],4pp2[4:1]/8h[4:1],,
{8}
6h[8:1],3,6h[8:1],4,6h[4:1]/4-6-2[6:1],,,,
4h[8:1],3,5h[8:1],3,6h[4:1]/5-3-7[6:1],,,,
6,35,2,24,1h[4:1],,8,,
{32}
7-1[8:1],6,5,,,,,,7-5[8:1],,,,2x,,,,7q3[4:1]*p3[4:1],,,,,,,,,,,,,,,,,,,,,,
(230.524)
{4}
1h[16:12],,5h[16:4],,
{8}
3-8[8:1]/7-4[8:1],,37,,1x,1x,5,2,
{16}
6,,,,6,,3,,6,,,,4qq2<1[4:1]/7,,,,4/7h[16:6],,,,,,,,B7,B6,B5,,,,,,2,,2,,5,,4,,35,,35,,4-1[8:1]/6-1[8:1],,,,46,,,,
7,,,,7,,4,,7,,,,5qq3>2[4:1]/8,,,,5/8h[16:6],,,,,,,,B8,B7,B6,,4h[1:1],,,,,,,,,,,,,,,,E8f/A8/A7/B7/B8,,,,,,,,E2f/A1/A2/B2/B1,,,,5q1[8:1]/7>1[8:1],,,,57,,,,2,,,,3,,6,,3,,,,4h[4:1],,,,B7,,B6,,,,3>7[4:1],,3,,,,6,,5,,4<8[4:1],,,,4,,,,3,,2,,1-7-5[4:1],,,,21,,,,3,,3,,4,,2,,5,,5,,4,,6,,E5,,B6,,B3,,B8,,
2,,2,,1,,3,,8,,8,,2,,3,,4h[16:12]/5h[16:12],,,,,,,,,,,,,,,,
{4}
1h[16:12],,5h[16:4],,
{8}
3-8[8:1]/7-4[8:1],,37,,1,1,5,2,
{16}
6,,,,6,,4,,6,,,,4qq2-8[4:1]/7,,,,4/7h[16:6],,,,,,,,6,5,4,,,,,,2,,2,,4,,4,,35,,35,,4-1[8:1]/6-1[8:1],,,,46,,,,
7,,,,7,,4,,7,,,,5qq3>2[4:1]/8,,,,5/8h[16:6],,,,,,,,7,6,5h[16:16],,3h[16:14],,,,,,,,,,,,,,,,
{32}
6,7,8h[16:11],,
{16}
,,,,,,
{32}
4,5,6h[16:3],,
{16}
,,,,,,
{32}
57,A8,D1,A1,D2,A2,,,
{16}
,,,,3,,6,,3,,,,4h[4:1],,,,B7,,B6,,,,3>7[4:1],,3,,,,6,,5,,4<8[4:1],,,,4,,,,3,,2,,1-7-5[4:1],,,,21,,,,3,,3,4,2,,2,,5,,5,4,6,,6,,E5,,B6,,B3,,B8,,
2,,2,1,3,,3,,8,,8,,2,,3,,4h[16:12]/5h[16:12],,,,,,,,,,,,,,,,1b,,,,,,,,A8,,,,,,,,
24,,1,,87,,6,,5/4,,,,4x-8[8:1]/2x,,,,41,,2,,3,,4,,5>3[8:1],,,,,,,,
75,,8,,12,,3,,4/5,,,,5x-1[8:1]/7x,,,,58,,7,,6,,5,,4-6[8:1],,,,,,,,
24,,1,,87,,6,,5/4,,,,4x-8[8:1]/2x,,,,41,,2,,3,,4,,5>3[8:1],,,,,,,,
7>7[2:1]/5,,,,,,5-7-1-3-5[2:1]b,,,,,,3<3[2:1],,,,7,,7,,,,4h[16:6],,,,,,,,,,
24,,3,,45,,6,,5/7,,,,4x-8[8:1]/8x,,,,48,,7,,6,,5,,4<6[8:1],,,,,,,,
75,,6,,54,,3,,4/2,,,,5x-1[8:1]/1x,,,,51,,2,,3,,4,,5>3[8:1],,,,,,,,
24,,3,,45,,6,,5/7,,,,4x-8[8:1]/8x,,,,48,,7,,6,,5,,4<6[8:1],,,,,,,,
7>7[2:1]/5,,,,,,5-7-1-3-5[2:1]b,,,,,,3<3[2:1],,,,7,,7,,,,4h[16:6],,,,,,,,,,
{8}
2-5[8:1],4,2v7-1[4:1]b,6,2,,6,,7-4[8:1],5,7v2<8[4:1]b,3,7,,3,,
2-5[8:1],4,2v7-1[4:1]b,6,2,,6,,7-4[8:1],5,7v2<8[4:1]b,3,7,,3,,
1-4[8:1],5,1-6-8[4:1]b,7,1,,5,,6-3[8:1],4,6v1<7[4:1]b,2,6,,2,,
3-5-7[4:1],,3/7-5-3[4:1],,,,1,,1,1w5[8:1],,1-5-1[4:1],,,,,
2-7[8:1],4,2v5-3[4:1]b,6,2,,6,,7-4[8:1],5,7v2<8[4:1]b,3,7,,3,,
2-8[8:1],4,2v4[8:1]b,4-1[8:1]b,2,,6,,7-4[8:1],5,7v2<8[4:1]b,3,7,,3,,
1-4[8:1],5,1-6-8[4:1]b,7,1,,5,,6-4[8:1],4,6-8v5[4:1]b,2,6,,2,,
3-1-7[4:1],,3/7-5-3[4:1],,,,1,,1,1w5[8:1],,1,,,,,
34,5,6-8-5[4:1],27,6,,1>4-8[2:1],,6,6,7-4[8:1]b,7,
{32}
B6,B5,,,
{8}
,,,15,2,5/3-1-4[4:1],72,3,,8<5-1[2:1],,3,3,2-5[8:1]b,2,
{32}
B3,B4,,,
{8}
,,,84,7,4/6-8-5[4:1],3,6,,1>4-8[2:1],,6,6,7-3[8:1]b,7,
{32}
C,B3,,,
{8}
,,,8<4[4:1],,4>8[4:1],,8-6>4[4:1]b,,4>2-8[4:1],,8-4[4:1]*<8[2:1]b,8,,,,,,,
2-4[8:1],4-6-8[4:1],2,8-2[8:1],C,,6,,
7-5[8:1],5-3-1[4:1],7,1-7[8:1],C,,3,,
3-5[8:1]b,5-7-1[4:1]b,3,1-3[8:1]b,C,,7,,
8-5[8:1],5-3>2[4:1],8,2-8[8:1],C,,4,,
2-6[8:1],6-4[8:1],2,8-4[8:1]b,8,,3,,
7-3[8:1],3-5[8:1],7,1-5[8:1]b,1,,6,,
7h[4:1],,5,,46,4,35,3,24,2,
{16}
1,2,3,4,51,8,7,6,5qq5<1[16:20],,,,
{8}
5x,,,,C,,,,B3,,,,4qq3-8-6[16:20]b,,,,5,,,,4,,,,3<3-7[16:20]b,,,,1,,,,5,,,,3,,,,
2,,2,4,,5,6,,8-2-4[2:1]/7-5-3[2:1],,,,,,,,Ch[1:1],,,B1/E2/B2/A1/A2,,,A3/A4/E4/B4/B3,,1bq5[8:1],,1,,7,7,75,,4,6,3,5,2,2,24,,1,,1h[2:1],3,4,5,6<1[8:1],,6,,2,,3,4,2,,5-1[8:1],2-4[8:1],5,2,8,7,63,,
5b<1[8:1],,1,,2,2,24,,5,3,6,4,7,7,75,,8,,8h[2:1],6,5,4,3v8[8:1],,3,,7,,6,5,7,,4-8[8:1],7-5[8:1],4,7,1,2,36,,
25,,34,,3h[8:1],5,3,,2h[8:1]/4,,2h[8:1],5,2h[8:1],4,26,,
74,,65,,6h[8:1],4,6,,7h[8:1]/5,,7h[8:1],4,7h[8:1],5,7q2[16:24]/3p8[16:24],,,,,,,,,,,,,,,,,,1<1[16:54],,,,,,,,C,,,,,,,,B5/C,,,,,,,,B5/C/B4,,,,,,,,1<1[16:54],,,,,,,,B5/C/B4/B6,,,,,,,,B5/C/B4/B6/B3,,,,,,,,B5/C/B4/B6/B3/B8,,,,,,,,1bx,,1bx,,A8,,1bx,,A8,,,,,,,,B3/E4/B2/E2/A2/A3/E3,,B3/E4/B2/E2/A2/A3/E3,,B6/E6/B7/E8/A7/A6/E7,,B3/E4/B2/E2/A2/A3/E3,,B6/E6/B7/E8/A7/A6/E7,,,,,,,,
8bx,,8bx,,A1,,8bx,,A1,,,,,,,,B6/E6/B7/E8/A7/A6/E7,,B6/E6/B7/E8/A7/A6/E7,,B3/E4/B2/E2/A2/A3/E3,,B6/E6/B7/E8/A7/A6/E7,,B3/E4/B2/E2/A2/A3/E3,,,,,,,,2,4,3,5,4,6,5,7,7,,8-5-1[4:1],84,,,3,,2,4,3,5,4,6,5,7,7,,8-5[4:1],,5-1[4:1],,1,,2,4,3,5,4,6,5,7,7,,8,8,5,,4,4,3h[16:6],,,4h[16:6],,,5h[4:1],,6h[4:1],,7h[4:1],,8h[4:1],,1h[4:1],,
7,5,6,4,5,3,4,2,2,,1-4-8[4:1],15,,,6,,7,5,6,4,5,3,4,2,2,,1-4[4:1],,4-8[4:1],,8,,7,5,6,4,5,3,4,2,2,,1,1,4,,5,5,53,,2h[8:1],4,2h[8:1],5,5h[8:1],,5-3-8[4:1]/2-4-7[4:1],,,,,,4,4,46,,7h[8:1],5,7h[8:1],4,4h[8:1],,4-6-1[4:1]/7-5-2[4:1],,,,,,8,8,82,,3h[8:1],1,3h[8:1],8,8h[8:1],,8<4[4:1]/3-6-8[4:1],,,,,,1,1,15,,6h[8:1],8,6h[8:1],1,1h[8:1],,7-3[4:1]b/2p4[4:1]b,,,,,,25,,2b-4-1[4:1]b/5b,,25,7,,8,8,,
7b-4-8[4:1]b/4b,,74,2,,1,1,,8b-4>1[4:1]/3b,,83,5,,4,3,,8b,,72,
{16}
2/7h[4:1],3,4,,,,5,,,,
{32}
75,64,35,24,
