&title=p.h.
&artist=SEVENTHLINKS,v flower
&first=-0.1
&des=魂兮归来👻魂兮归来👻魂兮归来👻
&lv_5=12+
&inote_2=
&inote_5=(132)
{1},
{4},,,,
{12}4,7,8,
{12}6,3,2,
{12}1-6[8:1]*-4[8:1],1,1,1b,{24},,,,
{8}8/1,{16}3,4,,6,{8}5,7,2,3/4,2,
{8}1/8,{16}6,5,,3,{8}4,2,8,6/5,8,
{8}1/2,{16}3,4,,6,{8}5,7,2,3/4,2,
{12}7,1,8,{12}3,5,4,6,4,4,{4}8b,
{8}1/8,{16}6,5,,3,{8}4,2,7,6/5,7,
{8}8/1,{16}3,4,,6,{8}5,7,1,3/4,1,
{8}7/8,{16}6,5,,3,{8}4,2,7,6/5,7,
{16}1bh[16:3],,,,2bh[16:3]/8bh[16:3],,,,7bh[16:3]/3bh[16:3],,,,{4}4/6,
{8}3,4h[8:2]/2,,5h[4:1],,6,7/4,,
{16}3,4,3h[8:1],,{16}8,,1/7,,{16}6,4,7,5,{4}8,
{16}6,,2,2,5h[8:1],,4,,3/6,,2,8,1,7,,,
{8}7/8,{16}3,3,{8}1-4[8:1],8,{16}6/1-5[8:1],,,,{4}7/1,
{8}8,3h[8:2]/1,,4h[4:1],,5,6/3,,
{16}6,5,6h[8:1],,{16}1,,2/8,,{16}3,5,4,6,{8}5,8,
{16}3,,8,8,5h[8:1],,4,,6/3,,2,1,2,,8,,
{8}7/1,{16}6,6,{8}8-5[8:1],1,{16}3/8-4[8:1],,,,{4}2/8,
{4}1-7[8:1]*-3[8:1],1-5[8:1],1,{8}7<4[8:1]/3,,
{8}7/1,,{4}8-5[8:1],2/8,1<6[8:1],
{4}1/3,8-4[8:1],8,{8}2>5[8:1]/6,,
{8}2/8,,{4}1-4[8:1],7/1,8>3[8:1],
{8}8/6,,{4}1-5[8:1],1/5,3<6[8:1]/7,1/3,
{4}2-6[8:1],{4}2>5[8:1]/8<5[8:1],{24}8/2,,,,,,
{8}7-4[8:1],7,3,2,1,{16}6,5,,3,4,,
{8}1-3[8:1]*-7[8:1],1,1-5[8:1],,1-4[8:1]*-6[8:1],,1,,
{8}7h[8:1]/2,4,6/5,7,1/8,{16}3,4,,6,{8}5,
{8}3h[8:1]/7,8,1/2,4,6/5,{16}7,1,,1,{8}8,
{8}6/5,2,3/4,7,{16}6/5,,3,4,,6,{8}5,
{16}4/2,,,5/7,,,{8}3/6,{4}1>3[8:1]/8<6[8:1],{32}8/1,,{16},,,
{8}2h[8:1]/7,5,4/3,2,1/8,{16}6,5,,3,{8}4,
{16}2,5,2,5,3,6,3,6,1,,,5,{8}4,8,
{8}6/5,2,3/4,7,{16}6/5,,,3,4,,{8}8,
{4}7q1[8:3]/1>8[8:3],,,2,
{8}4/3,{16}6,5,{8}7,{16}3,4,{8}2,7/8,{16}5,4,{8}6,
{16}2,1,3,,7,8,{8}6,1,2/8,{4}7/3,
{16}3,4,2,5,{8}4,3/6,1/8,{16}6,5,{8}7,{16}3,4,
{16}2,5,2,5,3,6,3,6,4,7,5,6,{8}3,4,
{8}3/5,6,5/7,4,{16}2,5,4,6,{8}3,7,
{8}1/8,{16}6,4,6,4,5,3,5,2,4,3,6,,,1,
{16}5,3,5,3,6,4,6,5,7,4,6,2,{8}4,1,
{16}2,5,2,5,3,6,3,6,4,7,5,6,{4}3,
{4}1-5[8:1],1/6,7<4[8:1]/3,{24}7/2,,,,,,{4}8-5[8:1]/4,
{24}8/3,,,,,,{4}4/1<6[8:1],{24}1/3,,,,,,{4}8-4[8:1],
{4}8/4,2>5[8:1]/6,{24}2/8,,,,,,{4}1-4[8:1]/5,
{24}1/6,,,,,,{8}8,2v7[8:1]/6v3[8:1],3>8[8:1]/7<4[8:1],,
{4},7-3[8:1],7/4<7[8:1],{24}1/4,,,,,,{4}3-7[8:1],
{24}3/1,,,,,,{4}2>5[8:1]*<7[8:1],{24}2,,,,{48},,,,{16}6,
{16}6,,8,{8}8,{16}3,3,4,1,,6,{8}4,{16}8,8,
{24}1x,2x,3x,8x,7x,6x,2x,3x,4x,7x,6x,5x,{8}1w5[8:1],,1,,
{8}2/8<5[8:1],4,8/5,3,{16}1,,2,4,,7,{8}5,
{8}6/3v6[8:1],1,3/7,8,{16}7/4,,3,5,,6,{8}4,
{8}7/8,6/5,2/7,3/4,{32}1/8,,{16},7,5,,2,{8}4,
{32}8/6,,{16},,1/3,,,{8}2/7,{4}5h[16:1]/4h[16:1],{32}1/8,2/7,3/6,,,,,,
{8}7<4[8:1]/1,4,7/3,2,{16}1,,6,4,,3,{8}5,
{16}2,6,2,6,3,7,3,7,1,,,5,4,,{16}8/1,,
{8}6/5,1/8,3/4,2/7,{16}8/1,,5,4,,8,{8}1,
{1}6p4[2:1]/3>5[2:1],
{16}4h[16:4],,,,3h[16:2],,2,,2pp6[4:1],,,1,,,,,
{16}8h[16:4],,,,7h[16:2],,6,,6-2[8:1],,,,1b,,,,
{12}8h[4:1],,,7h[4:1],,,6,6,5,4,,,
{16}7h[8:1],,4,4,8h[8:1],,2,2,1b-5[8:1],,,,1,,,,
{8}6/8,,4/2>5[8:1],1,2/7,,6/8<5[8:1],1,
{8}8/3,,1>4[8:1]/4,8,1/6,7,8<5[8:1]/5,1,
{8}8/4,,4/2>5[8:1],1,2/7,,6/8<5[8:1],1,
{16}2-6[8:1]/8,,2,,7-3[8:1],,7,,1-5[8:1],,1,,1,,,,
{16}8-5[8:1]/4,,3,3,8-4[8:1],,1,1,8,,,,{24}8,1,2,3,,,
{8}5>4-2[8:1]/1<8-6[8:1],3/7,5b/1b,,{16}8/4,,2,5,,7,4,,
{8}5/2-4<5[8:1],1,2/7,8,{16}1/5,,3,8,,6,1,,
{8}6/4,5/1,3/5,4/8,{16}6/5,,2,5,,7,{8}4,
{16}2/5,,3,8,,6,{8}1,{4}4h[16:1]/5h[16:1],{32}1/8,2/7,3/6,,,,,,
{8}3-5<6[8:1]/5,1,7/3,1,{16}8/3,,2,5,,7,4,,
{16}1,6,1,6,3,8,3,8,1,,5/4,5/4,,,2/7,,
{8}3/5,4/8,6/4,5/1,{16}3/4,,7,4,,2,{8}5,
{4}5<8[8:1]/1>4[8:1],5/1-5[8:1],1-4[8:1]*-6[8:1],{8}1,,
{16}3,6,4,5,3,4,2,5,{8}1,5,6/4,7,
{16}6,4,5,3,6,5,7,4,{8}8,5/6,2,{16}5,4,
{8}7-5[8:1],1,7,8-4[8:1],1,8,3,2,
{8}7-3[8:1],7,4-1[8:1],4,8>3[8:1],{16}7,,{8}6/8,,
{16}3,6,4,5,3,4,2,5,{8}1<6[8:1],2,1/3,4,
{16}6,3,5,4,6,5,7,4,{8}8>3[8:1],7,8/6,{16}5,5,
{8}3-5[8:1],8,3,1-5[8:1],8,1,7,8,
{4}5-3>2[16:2]/1-7<6[16:2],1>4qq5[4:2]/5<8qq1[4:2],{2},
E
