&title=淵底のグレイ・ユークロニア
&artist=打打だいず vs. siromaru vs. Tanchiky
&first=0
&des=DDDize vs. sirokaLu vs. TanBG
&des_5=
&lv_5=14+
&inote_5=(160)
{1},
{2}Ch[2:1],
{32}B2/B6,B3`B7,B8`B4,E1`E5,,,,,
{4},
{1}8<1[2:5],
{1}E2`B2,
{1}E6`B5,
{1}8w4[2:1],
(213.3)
{4}35,
35,
{16}26,,,26,
{8},26,
{8}1x,8x,
7x,6x,
{16}5x,4x,3x,2x,
{4}1x/Cf,
(210)
{8}7-5[8:1],8,
8,1-3[8:1],
4,4,
6-8[8:1],5,
{8}5,4-2[8:1],
1,1,
{4}7h[4:1],
B5/B6f,
{8}2-4[8:1],5,
5,6-8[8:1],
5,5,
4-2[8:1],1,
{8}1,8-6[8:1],
1,1,
2,2h[8:2],
,E5/B4f,
{8}2-4[8:1],6,
2,6-8[8:1],
2,6,
1v4[8:1],5,
{8}1,5v8[8:1],
1,5,
{4}2-4[8:1],
B8/E1f,
{16}7h[16:2],,5,6,
{8}5,3h[8:1],
{16}5,4,5,,
{8}3,6,
{16}B2,5,4,5,
3,4,2h[16:2],,
B7,4,5,4,
6,5,7h[16:2],,
{4}1b-5[8:1],
{16}2x,3x,4x,,
{4}1b-5b[8:1],
{16}8x,7x,6x,,
{24}3h[24:3],,,7,6,5,
{8}4/2b,2b<7[8:1],
,Cf,
,5b-1b[8:1],
{4},
{16}2x,3x,4x-8[16:2],,
{4}8b,
{16}7x,6x,5x,,
{24}2h[24:3],,,5,6,7,
{8}8/3b,3b<6[8:1],
,8bz4b[8:8],
,Cf,
{1},
{8}E3/B3,E7/B6,
,Ch[8:2],
,E6/A6,
,E4/A3,
{4},
{32}1h[32:4]/7b,6,5,4,3,,,,
,,,,8h[32:4]/2b,3,4,5,
{4}6,
{4}1-5[8:1]/8-4[8:1],
18,
{8}2b/7b,2b-6[8:1]/7b,
,2b/B7hf[16:1],
{16},,4,5,
4,,4,5,
4,,4,6,
4,,4,7,
{8}4,8-4[8:1],
8,1-3[8:1],
1,7-5[8:1],
7,Cf,
{8},3,
{16}3,,3,5,
{24}3,,,4x,5x,4x,
{8}5x,36,
{24},,,2x,3x,4x,
5x,,,7x,6x,5x,
{8}4x,1w5b[8:1]/Chf[8:2],
{4},
{8},3,
3,4,
4,5,
{16}5,,6,5,
{16}6,,4,5,
4,,3,6,
3,,7,2,
{8}7,1b/8b,
{16},,1,2,
3,4,1-5[16:2],8,
7,6,5/1,,
{8},7,
{16}6,5,6,,
{4}2h[4:1],
{8}4b,4b-8[8:1],
,B6hf[16:1]/4x>5[8:10],
{4},
{8},5h[8:1],
,4h[8:1],
,3h[8:1],
{8},2h[8:1],
,1-5[8:1],
,1b,
,7bh[8:6],
{8},E1/B8,
,B5/E6,
,B3/E3,
,8,
{8}8,1,
1,2-6[8:1]/7-3[8:1],
{4}27,
{8},1b/8b,
{8},6-4[8:1],
4,6,
3,2h[8:2],
,4b-6[8:1],
{8},2-4[8:1],
2,7,
7,5,
6,4,
{8}4,5,
{16}5,,4,5,
{8}4,36,
27,1s5[8:1]/8z4[8:1],
{4},
{8},2x-5[8:1]/7x-4[8:1],
{4},
{8},1-5-2[8:2],
{8},6,
{4}7,
{8}8-3[8:1]*-4[8:1],1,
{4}8,
{8}6-2[8:1],2-7[8:1],
{4}6,
{8}3,2>1b[8:3],
2,7h[8:2],
{4},
{16},,2x,3x,
{2}4bxh[8:3]/B6hf[8:3],
{8},3,
2,1,
8-3[8:1],8,
{16}7,6,5bh[16:10],,
{2},
{4}8b>5[4:1],
{16},,6,7,
{4}8h[4:1],
6b,
{16}4,5,7,6,
2,3,7,6,
{8}4x-7[8:1]*-1[8:1],5x/3x,
{4}4x,
{8}8x-3b[8:1],8x-5[8:1],
8x,8x,
{8},4xh[8:2],
7,5h[8:2],
2,4h[8:2],
8,6h[8:2],
{8}8,2h[8:1],
1,2/8,
{4}7/3<8[8:3],
{8},8>5[8:3],
{4},
5<2[8:3],
{8},2V86b[8:2],
,5h[8:3],
{4},
{16}4,3,2x/7x,,
{8}1x/8x,2x/7x,
{16}6,5,6h[16:4],,
{16},,3,4,
{8}2h,2h,
{16}7h,5,6h,4,
{8}5h,D3f/E3hf[8:5]/B2/B3,
{2},
{4}8<4[4:1],
{8},1qq3[8:3],
{2}1,
{16}5xh[16:6],,,4,
{8},3x-7>2-5b[8:6],
{2}6b,
{8}6,6-1[8:1],
6,6,
{8},8x/4,
{4}2/7h[8:3],
{16}5,6,,8,
1,2,3/7b-3-7b[16:4],,
{8},1b,
{4}1b-4-1b[4:1],
{8}1b-6-1b[8:2]/5b,5b,
5b,5bw1[16:3],
{2},
3xh[2:1],
{1}8x>5[4:6]*-5[4:6],
{1},
{1}1xs5[8:5],
{1}7x-1[2:1]/8x-4[2:1],
{12}2,3,4,
{4}6h[4:1],
{12}1,2,3,
{4}5h[4:1],
{12}2,3,4,
{4}5h[4:1],
{12}3,4,5,
{4}6v5qq3[4:3],
{1},
{16}2,4,2,4,
3,5,3,5,
4,6,4,6,
{4}1b,
{4}2bh[4:1],
{8}3,4bh[8:2],
,5,
{4}6bh[4:1],
{8}7,8b<5[8:1],
,3,
{4}4b-1[8:1]*-7[8:1],
4bx,
{8}8bxh[8:1],3h[8:1],
5h[8:1],8bh[8:1],
5h[8:1],3h[8:1],
8bh[8:1],3h[8:1],
{8}5h[8:1],1bh[8:1],
6h[8:1],4h,
{16}2x/7x,,4,5,
{8}4,3/6,
{8}2-4[8:1],2,
8-6[8:1],8,
1-5[8:1],1,
{16}8,,7x,6x,
{8}8-4[8:1],8,
7-5[8:1],7,
{16}1,,2x,3x,
4x/8,,7x,6x,
{16}5x/1,2,3,4,
8,7,6,5,
3,4,3,4,
2,1,2,1,
{32}3x,4,5,6,7,8,1,2,
3x,4,5,6,7,8,1,2,
3x,4,5,6,7,8,1,2,
3xs7-4-2b[32:24],4,5,6,7,8,1,2,
{1},
{24}2b,3,4h[24:17],,,,,,,,,,D7,A6,D6,
{4}A5h[4:1],
{24}
,,,
{4}2b-6[8:1],
{48}8/2x,,7x,C,6x,,5x,,,,,,
{4}1b>4[8:1],
{48}4/1x,,5x,D3,6x,,7x,,,,,,
{4}5bx-1[8:1],
{8}7,7-4[0.2857##0.1429]*-3[0.2857##0.1429],
,7b,
,6bv1[8:1],
{24},,,1,2x,3x,
{8}4x,,5x/8b<5[8:1],
{24},,,5,4x,3x,
{8}2,
{8}1-5[8:1],7-4[8:1],
1x,7x,
{24},,,1b,2,3,
{8}4,7xbh[8:1],
{16},,2,6,
3,5,4,4,
4,4,4-8[8:1],,
{8},4xb/3,
{16},,2,6,
1,7,8,8,
8,8,8-4[8:1],,
{8},8xb/1,
{16},,3,4,
2h[16:2],,6,5,
7h[16:2],,1,8,
1,8,,,
{24}
2b,3,4,
{16}
5,
{24}
1b,2,3,
{16}
4,
{24}
8bw4b[8:1],1,2,
{8}
3,B8f/E1/E8,,,
{4}8bv6[16:3],
{48}1x,,2x,C,3x,,,,,,,,
{4}5xbpp7[16:3],
{48}4x,,3x,C,2x,,,,,,,,
{4}1bx-5[8:1],
{16}7,C,7-3[8:1]*-4[8:1],,
{8},7b,
,2b>5[8:1],
{16},5,6x,7x,
{4}8,
{16}8bh[16:2]/5bh[16:2],,,7bh[16:2]/4bh[16:2],
{8},6bh[16:1]/3bh[16:1],
{4}5bh[16:3]/2bh[16:3],
{8}1v4[8:1],4bV28v5b[8:9],
{8}
,,
{8},6-4v1[8:5],
{1},
{8},1/B5f,
{16},7/B3f,,,
{4}4/B7f,
{8}2,3b/1b,
{16}6,5,6,5,
6,5,7,5,
7,5,7h[8:1],,
{8}8,7b/1b,
{16}2,6,2,6,
3,5,3,5,
4,4,4,,
{8}1,2b/8b,
{16}1,7,1,7,
1,7,1,7,
2,8,2,8,
2,8,2,8,
{32}3b,4,5,6,7,8,1,2,
3,4,5,6,7,8,1,2,
3/7,6,5,4,3,2,1,8z4[4:3],
7,6,5,4,3,2,1,8,
{1},
{16},,3,4,
2,,2,,
{8}18,7,
64,3,
{8}2>4[8:1],5,
5,8<6[8:1],
5,5,
3>1[8:1],5,
{8}5,4<7[8:1],
8,8,
1,1h[8:2],
{4}B4/B5,
{8}2>5[8:1],B7/B8,
2,6<1[8:1],
B3/B2,6,
4v1[8:1],B7/B6,
{8}4,8v5[8:1],
B3/E4,8,
{4}2-4[8:1],
B7/B6,
{16}2-4[16:2],1,2,1,
2,,6-8[16:2],5,
6,5,6,,
3>1[16:2],4,2,4,
{16}3,,7<4[16:2],8,
6,8,7,,
{8}1-4[8:1]*-6[8:1],2/8,
{4}1,
{16}3,7,3,7,
2,8,2,8,
1,1,1,1,
1-6-3-8-4[16:16],1,1,1,
{1}1h[4:3],
{1}
B2/E3,
{1}
B6/E7,
{1}
Ch[4:3],
{8}
1b-5[8:1],,7,7b-3[8:1],,2bw6b[8:1],,2xb,
{8}
,4,3,25,
{16}
1,8,7,6,5,4,3b/1b-5[8:1],,
{8}
,15,6,74,
{16}
8,1,2,3,4,5,6b/8b-4[8:1],,
{8}
,83,2,15,
{16}
8,7,6,5,48,37,6b/2b,,
{16}
,,3,4,2,,6,5,7,,18,,27,,3b/6b,,
{8}
,54,4-8[8:1],4,4/6-1[8:1],6,6/2-5[8:1],2,
{8}
7-4[8:1]/2,7,7/3-8[8:1],3,3/6<1[8:1],6,
{24}
2b/E7f,3,4,
{8}
5,
{4}
,
{32}
2h[4:1]/8b,7,6,5,4,3,,,
{8}
,
{32}
7h[4:1]/1b,2,3,4,5,6,,,
{8}
,1b/8b,
{16}
,,2,7,3,7,4,7,5-2[8:1],7>2[8:1],
{4}
,,
{32}
2h[4:1]/1xb,8,7,6,5,4,,,
{8}
,
{32}
8h[4:1]/1b,2,3,4,5,6,,,
{8}
,2b/7b,
{16}
,,1,7,8,7,6,7,5-2b[8:1],7-4[16:1],,,
{8}
7xb>2-5-2<7b[8:29]/5xb/Cf,
{1}
,,,,
{12}
1,2,3,E5/B5,,,2,3,4,E6/B6,,,3,4,5,E7/B7,,,4,5,6,E8/B8,,,
{4}
Ch[4:8],,,,,,,,B7/B6/E7/B2/B3/E3,
