&title=ラブリージャッジメント
&artist=いるかアイス feat.ちょこ
&first=0
&des_5=Tina-II
&lv_5=14
&des=Tina-II
&inote_5=(288){1},,,{4},,,,
{8}3h[4:2]/E7,,,,,,,,6h[4:2]/E3,,,,,,,,
{8}4h[4:2]/E8,,,,,,,,5h[4:2]/E2,,,,,,,,
{8}3v8[4:2],,,,,,,,
{8}6v1[4:2],,,,,,,,
{8}4,,36,,35,,47,,
{8}1-4-1[4:2]/6>4<6[4:2],,,,,,,,
{8}7h[4:1],,3,,2h[4:1]/6,,8,,
{8}6h[4:1]/4,,1,,3h[4:1]/5,,8,,
{8}7h[4:1],,{12}2,3,4,{8}56,,38,,
{8}1,1,7,7,2,2,6pp2[4:7],,
{8}2h[4:1],,,,3h[4:1],,,,
{8}4h[4:1],,,,5h[4:1],,,,
{8}1h[16:23]/5h[16:23],,,,,,,,
{8},,,,{16}8b/4b,7b/3b,6b/2b,,{8},,
{8}3xh[4:2],,,,B3/B4,,,,
{8}6h[4:2],,,,B6/B5,,,,
{8}2h[4:2],,,,1h[4:2],,,,
{8}8h[4:2],,,,,,,,
{8}26,,4,,4h[4:1]/C,,,,
{8}37,,5,,5h[4:1]/C,,,,
{8}47,,1,,25,,8,,
{8}3h[4:1]/6,,A8/B8,,A1/B1,,,,
{8}7-5[8:1],,1,,2-4[8:1],,8,,
{8}8-6[8:1],,2,,1-3[8:1],,5,,
{8}6-4[8:1],,3,,2-4[8:1],,7,,
{8}8-6[8:1],,2,,1h[4:1],,5,,
{8}2-5[4:1],,1,,8,,7,,
{8}1-4[4:1],,8,,7,,6,,
{8}6b>3[4:2]*>3[4:2],,,,3b-1<8-6b[4:3],,,,
{8}4xbh[4:2],,,,,,,,
{8}35,,4-8b[8:1],5,4x,,6,,
{8}64,,5-1[8:1],4,5x,,3,,
{8}35,,4-8b[8:1],5,4x,5,,,
{8}64,,5-1[8:1],,5x/3,,,,
{8}24,,3>8b[8:1],5,3x,,6,,
{8}75,,6<1[8:1],4,6x,,3,,
{8}24,,3>8b[8:1],5,3x,5,,,
{8}6,,6<1[8:1],5,6x,,4,,
{8}3>6b[8:29],,,,,,,,
{8}5h[4:2],,,,,,,,
{8}4h[4:2],,,,,,,,
{8}3,,3-6[8:1],,3,,,,
{8}1h[4:1],,7,7bh[4:1],,3,3bh[4:1],,
{8}5,5bh[4:1],,2,2bh[4:1],,8bh[4:1],,
{16}1,2,3,4,,,7,6,5,4,,,1b/2bh[4:3],,,,
{16}E3,E4,E5,E6,E7,E8,E1,E2f,,,,,,,,,
{8}35,35,,46,46,,2>4-8[4:2]/8<6-2[4:2],,
{8}2b/8b,,,,,,8x-6[8:1],1x,
{8}2x-4[8:1],,1-5b[8:1],,,,2x>4[8:1],1x,
{8}8x<6[8:1],,1-5b[8:1],,,,8,2,
{8}8<2[8:4],,1,,2>8[8:4],,1,,
{8}8-5-2[8:4],,1,,2-6b[4:1],,,,
{8}5x-8[8:1],,3b,,2-6[8:1],,8b,,
{8}7-3[8:1],,2b,,1-5[8:1],,6b,,
{8}7,7,4,4,5h[4:1],,2,2h[4:2],
{8},,E7f`B7/B6,,E3f`B2/B3,,1x-3[8:1],8x,
{8}7x-5[8:1],,8-4b[8:1],,,,7x<5[8:1],8x,
{8}1x>3[8:1],,8-4b[8:1],,,,1,7,
{8}1,6,4,5,2,2q2[4:2],1,2,
{8},,,,7,,6,,
{8}5-7[8:1]*-8[8:1],,,,4-7[8:1]*-8[8:1],,,,
{8}5-1[8:1]*-2[8:1],,,,4-1[8:1]*-2[8:1],,,,
{8}5,5,,37,,25,25,,
{8}1,E6,1,E7,2,E8,3,E1,
{8}4,,4h[4:2],,{16}3b,2,{8}1,,,
{8}8,,8h[4:2],,{16}7b,6,{8}5,,,
{8}4,,4h[4:2],,{16}3b,2,1,8,7,6,5,4h[4:2],
{8}Cf,,,,8x,,,,
{8}1qq4b[4:3],,,,,,,,
{8}6q3[4:2],,,,2q7[4:2],,,,
{8},,,,6>4-1b[4:2],,,,
{8},,,,37,,,,
{8}4h[4:2]/E7`B7,,,,,,,,
{8}8h[4:2]/E3`B3,,,,,,,,
{8}2h[4:2]/B5`E5,,,,,,,,
{8}6h[4:2]/E1`B1,,,,,,,,
{8}3v6b[4:2],,,,,,,,
{8}7v2[4:2],,,,,,,,
{8}35,,47,,26,,38,,
{8}1h[4:2]/7,,B7`B6,,B2`B3,,1,8,
{8}2h[4:1],,6,4,8h[4:1],,{12}2,1,2,
{8}1h[4:1],,3h[4:1],,5h[4:1],,7h[4:1],,
{16}5,4,3,2,1,8,7,6,45,3,2,1,8,7,6,5,
{8}4h[4:1],,7,7,4,8,2,6,
{12}2,3,4,8,7,6,1,2,3,7,6,5,
{16}1,8,7,6,5,4,3,2,18,7,6,5,4,3,2,1,
{8}4bqq1[4:5]/8bqq5b[4:5],,,,,,,,
{8},,,,,,,,
{8}3h[4:4],,,,B1,,,,
{8}8h[4:4],,,,,,,,
{8}5h[4:4],,,,B6,,,,
{8}7h[4:4],,,,,,,,
{8}4>1[4:3],,,,,,,,
{8}6>3[4:3],,,,,,,,
{8}8<5[4:3],,,,,,,,
{8}2h[4:2],,,,,,,,
{8}3,,3s7[4:2],,,,,,
{8}5,,5-1[4:1],,,,,,
{8}3/4-8b[8:1],,,,2>5[8:1],,,,
{8}8,8-4[8:1],,8x-3[8:1],,,,5x,
{8}2,6,1,6,3,6,4,6,
{8}2,7,1,7,3,7,4,7,
{8}56,,,34,,,18,,
{12}1b/8b,27,36,{16}4-1[8:1]/5-8[8:1],,,,,,,,,,,,
{8}6,5,,3,4,,18,,
{12}1b/8b,27,36,{16}4>1[8:1]/5<8[8:1],,,,,,,,,,,,
{8}3b/7h[4:2],,,,C,,,,
{8}6b/2h[4:2],,,,C,,,,
{8}3,5,3,5,4,6,4,6,
{8}2,2,7,7,{16}1,8,1,8,1b,,,,
{8}5x-8[8:1],,3b,,2-6[8:1],,8b,,
{8}7-3[8:1],,2b,,1-5[8:1],,6b,,
{8}7,7,4,4,5,5,2,2h[4:2],
{8},,E7f`B7/B6,,E3f`B2/B3,,1x-3[8:1],8x,
{8}7x-5[8:1],,8-4b[8:1],,,,7x<5[8:1],8x,
{8}1x>3[8:1],,8-4b[8:1],,,,1,7,
{8}1,6,4,5,2,2q2[4:2],1,2,
{8},,,,7,,7,,
{8}2<8[8:1],,{12}6,5,4,{8}3x>1[8:1],,{12}7,6,5,
{8}4x>2[8:1],,{12}8,7,6,{8}5x>3[8:1],,{12}1,8,7,
{8}6x/1x,1x,,25,,47,47,,
{8}3,E1,3,E8,2,E7,1,E6,
{8}2,,2h[4:2],,{16}3b,4,{8}5,,,
{8}6,,6h[4:2],,{16}7b,8,{8}1,,,
{8}3,,3h[4:2],,{16}2b,1,8,7,6,5,4,3,
{8}A8/B8,,,C/B2/B6,,,A4/B4,,
{8}1b-5[8:1],,7h[4:1],,4h[4:1],,6h[4:1],,
{8}1h[4:1],,5h[4:1],,3h[4:1],,7h[4:1],,
{8}2b>5[8:1],,1h[4:1],,6h[4:1],,8h[4:1],,
{8}7h[4:1],,8h[4:1],,3h[4:1],,1h[4:1],,
{8}2b,8,2,8,2,4,2,4,
{8}3b,5,3,5,3,1,3,1,
{16}4b,5,6,7,8,1,2,3,4,5,6,7,8,1,2,3,
{16}4b/8h,5,6,7,8,1,2,3,4,5,6,7,8,1,2,3,
{8}4b/8h[4:2],,,,6x>4-1[4:2],,,,
{8},,,,6xh[4:1],,,,
{8}2x/3x-5[8:1],,C,,6x/7x-1[8:1],,C,,
{8}2x/3x,,2,8,1>4[8:1],8,1,,
{8}6-8[8:1],,5-1[8:1],,4-2[8:1],,,,
{8}8-5[8:1],,1-4[8:1],,,,,,
{8}7x/6x-4[8:1],,C,,3x/2x-8[8:1],,C,,
{8}7x/6x,,7,1,8,2,8,,
{16}3x/E2,E3,,,4x/B1,B3,,,5x/B8,B6,,,6x/E8,E7,,,
{16}E5,B4,B3,E3,E7,B7,B8,E1,Chf[4:1],,,,,,,,
{8}6,6,4,4,5,5,5h[4:1],,
{16}3,4,3,4,3,4,3,4,3b,,,,,,,,
{8}3,3,5,5,4,6,4h[4:1],,
{16}6,5,6,5,6,5,6,5,6b,,,,,,,,
{8}2-4[8:1],1,2,8,1-5[8:1],8,1,,
{8}7-5[8:1],8,7,1,8-4[8:1],1,8,,
{8}2,2,5,5,4,4,7,7,
{8}3,7,1,5,2,6,8w4[8:1],,
{16}8b<1b[4:11],Cf,,,,,,,,,,,,,,,
{8},,,,,,,,
{8},,,,,,,,
{8},,E7`B6,,E3`B3,,,,
{8},,,,,,,,
{8},,,,,,,,
{8},,,,,,,,
{8},,,,,,,,
E
