&title=Dazzling You
&artist=Vivienne
&first=0
&des=谷底石
&lv_5=13
&des_5=
&inote_5=(104)
{16},,2>4[16:2],,
3,,,,
6,,5,,
47,,1>4[16:2],1,
{16},,7h[16:2]/1b,,
,,6,5h[16:3],
,,8,,
7h[16:4],,6,,
{16}1V38[16:4],,4,,
8,,,,
6,,5,,
47,,1,1h[16:5],
{16},,,,
3>8[16:2],,7,,
,,,,
6,,2,,
{16}1>4[16:2]/5<8[16:2],,,,
,,,,
3,,4,,
52,,8<5[16:2],8,
{16},,2h[16:2]/8b,,
,,3,4h[16:3],
,,1,,
2h[16:4],,3,,
{16}8V61[16:4],,5,,
1,,,,
3,,4,,
52,,8,8h[16:5],
{16},,,,
6<1[16:2],,2,,
,,,,
2-4[16:2],,5,,
{16}6V48[16:4],,,,
,,,,
2,,,4,
3,,25,,
{16}4,,3,,
5,,2/5-7[24:2],,
,,3-5[24:2],,
,,6,,
{16}7V13[16:3],,,1,
7,,5,,
4h[16:3],,,6,
5,,1/7h[16:4],,
{16},,3<1[16:4],,
2,,1,,
,,,,
2,,6,,
{16}5,6,,6,
2,,34,,
5,,,6,
5,,47,,
{16}6,,7-3[16:2],,
2/8,,3V58[16:4],,
,,,,
1,,2,,
{16}3,4h[16:2],,1,
1,,5qq6[16:4],,
,,,,
1,,2qq3[16:4],,
{16},,2,,
6,,4h[16:4],,
3,,2h[16:4],,
5,,6,,
{16}3,4,,4,
3,,7,,
5-1[16:2]/6-1[16:2],,,,
56,,,2,
{16}6-1[16:2],,1-5[16:2],,
6,,,,
2h[16:4],,5,,
4,,2,,
{16}3,4,,6,
5,6,3,,
4-8[16:2]/3-8[16:2],,,,
43,,,7,
{16}3-8[16:2],,8-4[16:2],,
3,,,,
7h[16:4],,4,,
3h[16:4],,6,,
{16}4-6[24:2],,2-4[24:2],,
,,,,
5-1[16:2]/6-1[16:2],,,,
56,,,2,
{16}6-1[16:2],,1-5[16:2],,
6,,,,
3h[16:2],,7,,
6h[16:2],,2,,
{16}3,4,,6,
5,7,5,8,
4-2[24:2],,5,,
7-4[24:2],,8,,
{16}3-7[24:2],,2,2,
4,,5-8[24:2],,
,,2-5[24:2]/5,,
,,8/2b,,
{24}7,,,7,5,6,
{16}4-1[24:2],,,,
4-7[24:2]/8-5[24:2],,7,,
48,,,,
{16}1,,5-2[24:2],,
46,,7p4[16:4],,
,,7,,
3,,1,,
{16}2-5[24:2],,3,,
7-4[24:2],,8,,
3-8[24:2]/7-2[24:2],,2,,
37,,,,
{16}5,,6qq7[24:5],,
1/7,,6<4[16:4],,
,,4qq5[24:5],,
,,8,,
{16},,1b,,
6-1[24:2],5,7,,
2-5[24:2]/6-3[24:2],,3,,
26,,,,
{16}4,,4-7[24:2],5,
3,,2pp6[16:4],,
,,2,,
7,,1,,
{16}8-5[24:2],,7,,
4-7[24:2],,2,,
4-1[24:2]/8-3[24:2],,,,
48,,,,
{16}2,,7pp6[24:5],5,
6,,7<1[16:4],,
,,1pp8[24:5],,
,,5,,
{16},,4b,,
5-8[24:2],4,6,,
5-2[24:2]/1-4[24:2],,2,,
51,,,,
{16}8,,4-7[24:2],,
53,,2q5[16:4],,
,,2,,
6,,8,,
{16}7-4[24:2],,6,,
2-5[24:2],,1,,
6-1[24:2]/2-7[24:2],,7,,
62,,,,
{16}4,,3pp2[24:5],,
8/2,,3>5[16:4],,
,,5pp4[24:5],,
,,1,,
{16},,8b,,
3-8[24:2],4,2,,
7-4[24:2]/3-6[24:2],,6,,
73,,,,
{16}5,,5-2[24:2],4,
6,,7qq3[16:4],,
,,7,,
2,,8,,
{16}1-4[24:2],,2,,
5-2[24:2],,7,,
5-8[24:2]/1-6[24:2],,,,
51,,,,
{16}7,,2qq3[24:5],4,
3,,2>8[16:4],,
,,8qq1[24:5],,
,,4,,
{16},,5b,5,
1,6,2,5,
3,,4,,
52,,8<5[16:2],8,
{16},,2h[16:2]/8b,,
,,3,4h[16:3],
,,1,,
2h[16:4],,3,,
{16}8V62[16:4],,5,,
1,,,,
3,,4,,
52,,8,8h[16:5],
{16},,,,
6<1[16:2],,2,,
,,,,
3,,7,,
{16}8<5[16:2]/4>1[16:2],,3,,
,,,,
6,,5,,
47,,1>4[16:2],1,
{16},,7h[16:2]/1b,,
,,6,5h[16:3],
,,8,,
7h[16:4],,6,,
{16}1V37[16:4],,4,,
8,,,,
6,,5,,
47,,1,1h[16:5],
{16},,,,
3>8[16:2],,7,,
,,,,
7-5[16:2],,4,,
{16}3qq5[16:8],,,,
,,,,
