&title=冠菊
&artist=藤田琴音
&first=0
&des=Yuzukeai
&lv_5=13
&inote_5=(135)
{1},
{4},,,
{24}A5,E5/D5,A4/E4,D4/A3,D3/E3,A2/E2,
{16}D2/A1f,,,,,,,,2x/4x,,,2x/4x,,,2x/4x,,3xb/C,,,,
{24},,,D4/A3,D5,D6,
{16}7x,,,7x/5x,,,7x/5x,,Chf[1:1]/6,,,,,,,,,,,,7-3b[8:1],,,,,,,,2-6[8:1],,,,,,,,7,,,,
64,,,3,4,,2,,5-1[8:1]/1-5[8:1],,,,15,,,,
74,,,3,5,,2,,1-5[8:1],,5-1[8:1],,1,,,,
6,,,3,7,,48,,5-1[8:1]/1-5[8:1],,,,51,,,,
7-5[8:1],,,5-1[16:1],7,,3,,2-4[8:1],,,4-8[16:1],2,,5,,7
35,,,6,5,,7,,4-8[8:1]/8-4[8:1],,,,84,,,,
25,,,6,4,,7,,8-4[8:1],,4-8[8:1],,8,,,,
3,,,6,2,,51,,4-8[8:1]/8-4[8:1],,,,48,,,,
{32}A2/D3/A3/B3/B2,E3,,,,,,,A6/D6/A5/B5/B6,E6,,,,,,,
{24}A4,E5/D5,A5/E6,D6/A6,D7/E7,A7/E8,8bx-4[8:1],,,,,,
{8},,,,,,2h[8:1]/5h[8:1],,4h[8:1]/6h[8:1],,,,,,5-1[8:1],6,,,,,,,
7h[8:1]/4h[8:1],,5h[8:1]/3h[8:1],,,,
{16},2h[16:1],4h[16:1],3h[16:1],5h[16:1],4h[16:1],6,,
5^2[8:1]/7,,,,3,,,,5^2[8:1]/7,,,,3^6[8:1],,,,5,,,,8-4[8:1],,,,3v1[8:1],,,,8-4[8:1],,,,3v1[8:1],,,,8,,,,3v1[8:1],,,,8V64[6:1],,,,3-7[8:1],,,,36,,,,15,,,24,,,3>5[8:5],,,,,,,,,,5>1b[2:1],,,,,,,,1<5b[2:1],,,,,,,,5p4>7b[1:1],,,,,,,,6hx[8:3],,,,,,,,5hx[8:3],,,,,,,,4hx[8:3],,,,,,{24}D4,A3,D3,A2,,,,,,1b/4b,,,,,,
{16}5h[8:1],,,5h[8:1],,,3x,,3x-5[8:1],,,,6,,,,7h[8:1],,,7h[8:1],,,2x,,2x-6[8:1],,,,5h[4:1],,,,
{24}8x,1x,2x,3x,4x,5x,6x,5x,6x,5x,6x,5x,
{16}6xb,,,4b/7b,,,1b/8b,,3bv8b[8:1]/Cf,,,,,,,,7-3[8:1],,,,4w8b[8:1]/7,,,,E4/E5/B4f,,,,
2-5[8:1],,6,,2/7-4[8:1],,8,,7/3qq4[4:1],,2,,{24}3x/A5,D6,A6,A7,,,
{16}8xb-4[8:1],,3^8[8:1],,8,,3,,5^8[8:1],,8x^2[32:3],,
{24}5x,D7,D8,D1,,,
{16}4-1[8:1],,8,,4/7-4[8:1],,6,,7/2-5[8:1],,3,,{32}2bx,E3,B3,E5,
{16},{32}8bx,E8,B7,E6,{16},{32}1bx,B1,C,B5,{16},{32}7bx,B7,C,B3,{16},{32}2bx,B2,C,B6,,,,,
{16}1h[8:1]/8h[8:1],,,,7-4[8:1],,3,,7/2-5[8:1],,1,,2/6pp4[4:1],,7,,{24}6x/A4,D4,A3,A2,,,
{16}1xb-5[8:1],,6,,1,,8-4[8:1],,3,,8,,2qq4[16:8],,,6pp4[16:5],,,,,,,,,,,,,3^6[8:1],,2,,3/6p2[8:1],,,,2q7[8:1],,,,8bw4b[8:1],,,,E1/E8/B8f,,,,
7-4[8:1],,8,1,7/2-5[8:1],,1,,2/6-1-7-5[4:1],,7,,{24}6x/5x,B4,B3,A2,,,
{16}1xb-5[8:1],,2,8,1,,6,,4^1[8:1],,1,,
{24}8x/4,D8,A7,A6,,,
{16}5x-8[8:1],,1,,5/2-5[8:1],,3,,2/7-4[8:1],,6,,{32}7bx,E7,B6,E5,
{16},{32}1bx,E2,B2,E4,{16},{32}8bx,B8,C,B4,{16},{32}2bx,B2,C,B6,{16},{32}7bx,B7,C,B3,,,,,
{16}8hb[8:1]/1hb[8:1],,,,,,,,2h[8:1]/4,,,3h[8:1]/5,,,4h[8:1]/6,,A7f/D8,,,,,,,,7h[8:1]/5,,,6h[8:1]/4,,,53,,{24}2x,4x,2x,4x,2x,4x,2x,4x,2x,4x,2x,4x,2x,4x,2x,4x,2x,4x,2x,4x,2x,4x,2x,4x,2bxV46[4:1],,,,,,,,,,,,8-4[8:1],,,,,,8b/Cf/4,,,,,,
{8}A2f,,53,5,A1f,,3h[4:1]/5,,A8f,,46,4,A7f,,6h[4:1]/4,,D2f,,35,4,D8f,,46,5,
{16}2-4v5-7[4:1],,,2,,,,,8^5v4^1[3:1],,,8,,,,,D2f,,,,3,,5,,A7f/4,,,,6,,4,,5/A1f,,,,3,,5,,4/A8f,,,,6,,,,1bq5[8:1]/Cf,,,,,,,,7b/3b,,,1b/5b,,,3b/7b,,Ch[4:2],,,,,,,,,,,,
C/B2/B3/B4/B5/B6/B7/B8/B1/E2/D2/E3/D3/D4/E4/D5/E5/D6/E6/D7/E7/D8/E8/D1
,
