&title=Oberon
&artist=葉月ゆら
&first=0.000
&wholebpm=168.000
&lv_5=14
&des_5=Rye Rhyme Goodfellow
&inote_5=(168){1},,
{32}A2,D2,A1,D1,A8,D8,A7,D7,A6,D6,A5,D5,A4,D4,A3,D3,{8}A2`1x>8b[4:7],,,,
{1},
{4},,,{16}2,6,2,6,
{8}1b,1,7/8,7,6/4,6,8/3,8,
{16}1,,6,4,6,4,6,4,7-5[8:1],,7,,5,,3,,
{16}2h[8:1],,4,3,6h[8:1],,5,7,2h[8:1],,6,1,4h[8:1],,8,,
{16}1,5,1,5,2,6,2,6,3,7,2,8,4,6,1,7,
{16}4b,,,,7/8,,7,,6/4,,6,,8/3,,8,,
{16}2,,7,1,7,1,7,1,6-4[8:1],,6,,4,,2,,
{16}1hx[8:1],,4,3,4,,2,5,3,4,3,4,2,,8,1,
{16}8hx[8:1],,2,6,2,,7,3,5,4,6,5,8bh[1:0],,,,
{16},,{32}D2,E2`A2,E3,A3`E4,{8}D4,7,7xh[8:2]/5x,,5,6,
{8}4x,4,3h[4:1]/5,,5,5,6h[4:1]/4,,
{16}2x,,2,5,4,,6,,5/7<4[8:1],,,3,,,1,,
{16}7x/8x,,6,5,7,,3,,2b-5[8:1]/4b-8[8:1],,,,2x/4x,,,,
{16},,{32}D8,E8`A7,E7,A6`E6,{8}D6,2,2xh[8:2]/4x,,4,{16}6,5,
{16}7x,,4,,4/5,,3,4,1xs5b[8:1],,,,6,,,,
{16}8x,,2,4,3,,7,4,8-4[8:1],5,8,5,8,,,,
{16}2x,,6,5,7,,2,5,1<6[8:1],4,1,4,1,,,,
{8}3x,3,1-5[8:1]/2,8,1b-3[8:1]/7b-3[8:1],,1b/7b,,
{8}6,6,5/4-8[8:1],3,2b-5[8:1]*-6[8:1]/4b,,2b,,
{8}7-1[8:1],7,2,3,4-6[8:1],4,8,,
{8}3x/5x<8[64:7],,2x>5[64:7]/5x,,2x/8xw4[8:1],,8x,,
{8}2b/6b,,3v2[8:1]/7v8[8:1],,3V15[8:1]/7V15[8:1],,,,
{8}7,7,5-8[8:1]/6,4,3b-1[8:1]/5b-1[8:1],,3b/5b,,
{16}7xh[4:1],,,,8,,8,,1/6,2,3,4,1,2,3,4,
{16}2,1,8,7,6,5,4,3,6,7,8,1,5,6,7,8,
{12}4b,,1b/5b,,2/6,3/7,4b/8b,,5b/6b,,3/7,2/6,
{16}1x/5x,,,,{48}A1,B1,C,B5,A5,,,,,,,,,A4/A6,D7`D4,A7`A3,D8`D3,A2`A8,D2`D1,,,,,,{4}4b/6b,
{4}7b-4[8:1]/8b,7/5-1[8:1],5/2-5[8:1],2/4-8[8:1],
{4}7<3[8:1]/4,7/5,1h[8:2],{8}8,8/2,
{16}5/4,,7,3,5,4,8,,7/1,,2,6,4,5,1,,
{16}6/2,,5,3,7,1,6,5,{32}8bw4[8:1],,,,,,,,{4}8,
{4}2b-5[8:1]/1b,2/4-8[8:1],4/7-4[8:1],7/5-1[8:1],
{4}2>6[8:1]/5,2/4,7h[8:2],{8}1,2/6,
{8}8<5[8:1],8,4-7[8:1],2,1-5[32:4],,8b,,
{8}7-3[8:1]/3,6,7/1w5[8:1],,1b<2b[4:1],,,,
{16}8x,,,,1,7,1,7,2,6,2,6,3,5,3,5,
{16}1h[8:1],,4,3,6h[8:1],,5,7,3h[8:1],,4,2,8h[8:1],,5,7,
{12}1b-5[8:1],,2/4,,6h[24:1],,7b-4[8:1],,5/6,,3h[24:1],,
{12}2b>5[8:1],,4/1,,6h[24:1],,8/7h[128:1],,4/2h[128:1],,6/5h[128:1],,
{8}1b/8x,8h[4:1],6,4,2/5-8[8:1],,7,4,
{8}1/8,8h[4:1],6,4,2>4[32:3]/5<7[32:3],,2/5,,
{8}8/5,5h[4:1],2,4,6/1w5[8:1],,1,,
{48}B4f/3b,2b,1b,{16},,,A7/A8/E8h[4:1]/B7/B8,,,,A2/A3/E3h[4:1]/B2/B3,,,,A5/A6/E6h[4:1]/B5/B6,,,,
{8}4xbh[4:1],,,7,7-5[8:1],8h[8:1],,2,2-8[8:1],4h[8:1],,6,6V47[16:3],8,3h[8:1],,
{8}1-5[8:1]/8hx[4:1],,,6,6-2[8:1],4h[8:1],,3,3-5[8:1],8h[8:1],,7,7-3[8:1]/5,3,1w5[8:1],,
{1}1x,
{8}4h[8:1]/6h[8:1],,5,4,3/7,4,5,6,
{8}4b-2[8:1]/7b-5[8:1],,,,1b-5[8:1]/4bz8[8:1],,,,
{12}5b/7b,,3b/4b,,2,8,1b/7b,,5b/6b,,2,4,
{12}3b/5b,,1b/8b,,7,5,4b/6b,,2b/8b,,3-8[32:3]/7,3/7,
{4}7b<1b[8:3]/3b,,,4b/6b,
{4}8b>3[8:1]/2b,8-6[8:1]/5-1[8:1],8/5-3[8:1],5<8[64:7]/2>5[64:7],
{4}2/5-1[8:1],8w4[8:1]/5,8,{8}6/2,,
{16}4/5,,2,6,4,5,1,,2/8,,7,3,5,4,8,,
{16}3/7,,4,6,2,8,3,4,{32}1b-5b[8:1],8,7,6,5,4,3,2,{4},
{4}1b<6[8:1]/7b,1-3[8:1]/4-8[8:1],1/4-6[8:1],4>1[64:7]/7<4[64:7],
{4}7/4-8[8:1],1w5[8:1]/4,1,{8}7/3,7,
{8}8/1>4[8:1],1,5-2[8:1],7-3[32:3],8-6[32:3],,1b,,
{8}2-6[8:1]/6,3,2/8w4[8:1],,8b>1>2>3<4<5<6<7b[4:1],,,,
{16}1x,,,,2,6,3,4,1,7,1,7,2,8,2,8,
{16}3,7,5,6,2,8,4,5,1b>4[8:1]*<6[8:1],,,,1b,,,,
{12}7b/3b,,,8-4[8:1],8,8,3,3,3,2-6[8:1],2,2,
{12}5,5,5,8,8,8,1xw5[8:1],,,1b,,,
{16}3,7,3,7,4,6,1,8,2,6,2,6,3,4,1,7,
{16}2,8,2,8,3,7,5,6,{48}8b,,,{16},,,{32}1xb/7xb,2/6,3/5,4,,,,,
{4}2bv8b[8:1]/6bv8b[8:1],2-4[32:3]/6-4[32:3],2v1b[8:1]/6v7b[8:1],2>4[32:3]/6>4[32:3],
{4}2-7b[8:1]/6-1b[8:1],2<5[64:9]/6<3[64:9],A1/A7f/D1/D8/A8/E8/E1,
{8}2x/8x,4,7v4[32:3],7,5<8[8:1],3,1w5[8:1],,1b,,
{8}7-4[8:1]/2-5[8:1],1/8,2/7,,{32}8b/1b,7b/2b,6b/3b,4bz8[32:3]/5bs1[32:3],,,,,,,,,,,,,
{16}2b/7b,,,,1,6,3,4,{32}8bx,7,6,5,4,3,2,1,8,7,6,5,4,3,2,1,
{16}8x/7x,,7,5,6,,2,2,4,3,8,1,6,5,7,,
{48}2bx
,,,3,,,4,,
8xh[1:0],5,,,6,,,7,
4xh[1:0],,8,,,1,,,
{48}5bx/2x,,,6,,,7,,
3xh[1:0],8,,,1,,,2,
7xh[1:0],,3,,,4,,,
{48}8bx/5x,,,1,,,2,,
7xh[1:0],3,,,4>5b[32:12],,,5,
2xh[1:0],,6,,,7,,,
{48}8bx/E4/D4f/A3,,,,,,,,,,,,,,,,,,,,,,,,
{8}8-4[8:1]/4,8,3,1,5h[8:1]/8>3[8:1],,7,7,
{8}4h[8:1]/8-4[8:1],,3,1,8-5[8:1]/5-8[8:1],7,,,
{8}4-7[8:1]/6,4,8,6,5-1[8:1]/8h[8:1],,1,2,
{16}4,4,7,7,5,6,2,4,1,8,1,8,7bx/B4/E4f/A3/A4/B3,,,,
{8}6-4[8:1]/1h[8:1],6,5x,7,1h[8:1]/6-4[8:1],,5x,7,
{8}1/6-4[8:1],3,5x,7,1w5[8:1]/6,,1x,,
{8}3-5[8:1]/8h[8:1],3,4x,2,8w4[8:1]/3,,8x,,
{12}2x/6x,2,2,3/7,7,7,5,5,6,4,4,5,
{12}3x/6x,4,5,4/6,5,6,4-7[48:5]/7,3-5b[12:1]/6,2/5w1[12:1],
