&title=Streak[SD]
&artist=ARM(IOSYS)
&first=0
&lv_3=1
&des_3=
&inote_3=
(150){4},
E
&lv_6=14.3
&des_6=saccharin
&inote_6=
(150){4},,,,,,7b/8b,
1,
{8}2,3,4,5,{12}6b,7,8,1,2,3,
{16}4b,5,6,7,8,1,2,3,{24}4b,5,6,7,8,1,2,3,4,5,6,7,
{32}8b,1,2,3,4,5,6,7,8,1,2,3,4,5,6,7,{12}8h[12:1],1h[12:1],2h[12:1],3h[12:1],4h[12:1],5h[12:1],
{8}6,7,8,1,{4}2z6[8:1]/3s7[8:1],3b/2b,
{2}4h[1:2]/5-3[8:1],3-5[8:1],
{4}6-3[8:1],6-1[8:1],6-2[8:1],6b,
{8},4/5,7V53[8:1]/6V42[8:1],3V17[8:1]/2V86[8:1],7b/6b,,,7b/2b,
{16}1,4,4,4,2,4,4,4,{4}5s1[8:1]/3z7[8:1],5b/3b,
6V42[8:1],1>5[8:1],6V42[8:1],1>5[8:1],
1q5[8:1]/5q1[8:1],5>1[8:1]/1<5[8:1],5q1[8:1]/1q5[8:1],5>1[8:1]/1<5[8:1],
{2}5b/1b,{16}6v8[8:1]/5v3[8:1],7b/4b,,,,,,,4v6[8:1]/3v1[8:1],
5b/2b,,,,,,,7-2[8:1]*-3[8:1],7h[16:3],{32},,,,,,,,,,,,8,
7,{16}6h[8:1],{32},,,,2,3,{16}4h[8:1],,,7qq4[4:1]/3-1[8:1],7/3,3/7,7/3,{32},,,,,,,,1,
2,{16}3h[8:1],{32},,,,7,6,{16}5h[8:1],,,4pp2[4:1]/6<1[8:1],6/4,4/6,6/4,,,,,{4}7q8[4:1],
8>7[4:1],7v8[8:1],1b,
{16}2,2,1,1,8,8,7,7,1b,5h,3,7h,5b,1h,3,7h,
{32}1,2,{16}3h[8:1],{32},,,,7,6,{16}5h[8:1],,,2pp5[4:1]/6-8[8:1],2/6,6/2,2/6,{32},,,,,,,,,,8,
7,{8}6h[8:1],{32}2,3,{16}4h[8:1],,,5qq7[4:1]/3>8[8:1],3/5,5/3,3/5,,,,,{4}1s5[8:1],
1<5[8:1]/5>1[8:1],1-4[8:1]/5-8[8:1],5b/1b,
8<7[32:1]*<6[16:1]*<5[32:3]*<4[8:1],{32}8b/4b,3,2,1,{8}8,{12}6b,6,6,3b,3,3,
{32}7,6,{16}5h[8:1],{32},,,,1,2,{16}3h[8:1],,,6q8[4:1]/3<6[8:1],6/3,3/6,6/3,{32},,,,,,,,5,
4,{16}3h[8:1],{32},,,,8,7,{16}6h[8:1],,,8-2[8:1]/7p4[4:1],8/7,8/7,8/7,,,,,{4}8<5[8:1]*-5[8:1],
8z4[8:1],8>4[8:1],8b,
{16}3,3,4,4,5,5,6,6,4b,8h,2,6h,8b,4h,2,6h,
{32}2,3,{16}4h[8:1],{32},,,,8,7,{16}6h[8:1],,,3p1[4:1]/6>3[8:1],3/6,6/3,3/6,{32},,,,,,,,4,
5,{16}6h[8:1],{32},,,,1,2,{16}3h[8:1],,,1-7[8:1]/2q5[4:1],1/2,1/2,1/2,,,,,{4}8<4[8:1]*>4[8:1],
8v6[8:1]*v2[8:1],8s4[8:1]*z4[8:1],8b,
6>5[16:1]*>4[8:1]*>3[16:3]*>2[4:1]*>1[16:5]*>8[8:3]*q8[8:3],,,7b/2b,
{16}2-5[8:1],1,3,1,2b,7h[8:1],,,7-4[8:1],8,6,8,7b,2h[8:1],,,{8}6h[16:1]/5h[16:1],
8h[16:1]/1h[16:1],4h[16:1]/3h[16:1],8h[16:1]/1h[16:1],{16}7,2,8,1,7,2,8,1,
3b,8,8,8,8,8,8,8,2b,1,1,1,1,1,1,1,
{32}1,2/8,3/7,6/4,{8}5h[8:1],{32},,,,8,7/1,6/2,3/5,{4}4h[8:1],{32}8b/4b,7/3,6/2,5/1,{8}4/8,
{16}6-1[8:1],5,7,5,6b,3h[8:1],,,3-8[8:1],4,2,4,3b,6h[8:1],,,{8}2h[16:1]/1h[16:1],
4h[16:1]/5h[16:1],8h[16:1]/7h[16:1],4h[16:1]/5h[16:1],{16}3,6,4,5,3,6,4,5,
{8}8h[16:1]`6h[16:1],5h[16:1]`6h[16:1],3h[16:1]`4h[16:1],3h[16:1]`1h[16:1],{12}8b/4b,7,6,5b/1b,2,3,
{24}3b/6b,5/4,,,7b/2b,6/3,{12}5/4,{24}8b/1b,7/2,6/3,5q2[24:5]/4p7[24:5],,,,,,,,,,,,,{8}4b/5b,
{16}5,3,5,2,5,1,5,8,5,7,5,8,5,1,
{8}1,{16}1,7,1,6,1,5,1,4,1,3,1,4,1,5,
{8}5,{16}5,3,5,2,5,1,5,8,5,7,5,8,5,1,
{2}1-5[8:1]/5-1[8:1],{4}2s6[8:1]/3z7[8:1],3b/2b,
{8}5b/4b,{16}4,6,4,7,4,8,4,1,4,2,4,1,4,8,
{8}8,{16}8,2,8,3,8,4,8,5,8,6,8,5,8,4,
{8}4,{16}4,6,4,7,4,8,4,1,4,2,4,1,4,8,
{1}4>3[8:1]*>2[4:1]*>1[8:3]*>8[2:1]/8<7[8:1]*<6[4:1]*<5[8:3]*<4[2:1],
{4}5-8[8:1]/1pp4[2:1],5b,{2}7p6[4:1],
{4}2q8[4:1],8p2[4:1],{2}5q4[4:1],
{8}3-1[8:1],1-4[8:1],4-8[8:1],8-5[8:1],5-7[8:1],4b,{4}4b,
{8}2-4[8:1],1-6[8:1],2-6[8:1],1-7[8:1],2-5[8:1],1-5[8:1],2z6[8:11]*z6[8:11]*z6[8:11],1,
{1}2b,
2-6[8:1],
E
