&title=斜陽
&artist=ヨルシカ
&first=0
&des=karte.0 サカはコイに沈んだ
&lv_5=12
&inote_5=(124)
{1},
{8}3h[8:3],,,4>7[8:3],,,,5,
{8}6h[8:3],,,5<2[8:3],,,,,
{8}4,3,2,1<3[8:3],,,,,
{8}5,6,7,8>6[8:3],,,,,
{8}2h[8:3],,,1q6[4:1],,,,1,
{8}7-5[4:1]/8-4[4:1],,,,,,,,
{8}7,6pp4[8:3]*pp4[8:3],5,,,,,,
{8}2,3qq5[8:3],4,5b,,,{16}6,7,{8}8,
{8}8v5[8:1],5<4[8:3],,2h[4:1],,,1,1h[8:2],
{8},4V27[4:1],{16}6,7,{8}8-5[8:1],,,4,3,
{8}12,8-6[8:1],1-4[8:1],,,5,6,7h[4:1],
{8},1v6[8:1],1v4[8:1],,,,{16}6,7,{8}8,
{8}8p4[8:1],4V27[4:1],,1h[4:1],,,6,6h[8:2],
{8},5p7[4:1],{16}4,3,{8}2h[4:2],,,8,1,
{8}3,4<3[8:3],5,6h[4:1],,,6,6-2[8:1],
{8},2,3,4w8[8:1],,,,,
{8}2-4[8:1],,6,,5-3[8:1],,6,6,
{8}2-4[8:1],,6,,5-3[8:1],,6,6-8[8:1],
{8},8,1,2-4[8:1],,4,5,6<5[4:2],
{8},,,,,2,1,8,
{8}7-5[8:1],,3,,4-6[8:1],,3,3,
{8}7-5[8:1],,3,,4-6[8:1],,3,3-1[8:1],
{8},1,8,7-5[8:1],,5,4,4>4[8:5]*<4[8:5],
{1},
{8}1h[4:1]/7h[4:1],,,2h[4:1]/6h[4:1],,,3h[1:1]/5h[1:1],,
{1},
{8}8h[4:1]/2h[4:1],,,7h[4:1]/3h[4:1],,,6/4h[8:9],,
{8},,3,,,,3,2b<4[8:5],
{8},3,3,3,2,2,2,1,
{8}8h[4:1],7,6,5h[4:1],4,3,2q8[4:1]/2>7[4:1],1,
{8}2b,,,1h[8:3],,4,4-8[8:1],5,
{8}6h[4:1],,1qq5[8:3],3h[8:3],,,,,
{8}3,2pp5[8:3],1,8,,6,7,8,
{8}1-5[8:1],2pp6[8:3],1,2,,6,7<8[8:3],8,
{8}7,,,4h[8:3],,5,6,7-5[8:1],
{8}8-4[8:1],,,6h[8:3],3,2,1h[4:1],,
{8}6,7qq4[8:3],8,1,,3,2,1,
{8}8-4[8:1],7qq3[8:3],8,7,,,{16}2,1,{8}8,
{8}8q4[8:1],4<3[8:3],8,6h[4:1],,,7,8h[4:1],
{8},4V26[4:1],{16}8,7,{8}6<5[8:3],,5,5,6,
{8}7,8qq4[8:3],1,2,,3,2>5[8:1],1<6[8:1],
{8}2-6[8:1],1qq5[8:3],2,1,,,{16}4,3,{8}2,
{8}2-5[8:1],5pp1[8:3],2,6h[4:1],,,7,7h[4:1],
{8},5V73[4:1],{16}1,2,{8}3>4[8:3],,4,4,3,
{8}2,1,8,7h[4:1],,5,6,7,
{8}8v5[8:3],1-4[4:1]*-4[4:1],
