&title=レグルス
&artist=ゆうゆ
&first=1.96
&des=
&des_5=Saki.Aqua
&lv_5=14+
&inote_5=(146){4},{8},,,,,,4b,
4,{16}5,5,,4,{32},,5,4,{8}5,{16}3,6,3,6,
{32}3h[4:1],,,,,,,,,2x,1x,8x,{8}7bxh[8:3],,,{4}5h[4:1],
{8}3h[4:1],{16},,,,8,1,{8}2b/7h[4:1],{16},,,,5,6,
{8}7b/4,{16}B4,B5,,3,4,3,{4}2b/5h[4:1],2h[4:1],
7bh[8:3],{8}5,5,5/7,7/5,8/4,8/4,
{16}3/1h[16:3],,,3,,,2,1,{8}8b/3,{16}E8,B7,E7,6xh[16:3],,,{4}1-4[2:3],
{8}8,7,7,{16}6,6,,,{8}5,
{4}6,{8}7,6,6,{16}7,7,,,{8}8,
8,{16}2/8h[8:1],3,{8}4,{16}3/8h[8:1],4,{8}5,{16}8h[8:1]/E3,E4,{8}E5,{16}1,8,
2b/7h[16:3],,,5h[16:3],,,{8}3h[8:1],{4}1h[8:1],{16}7,1,6,1,
{4}8-5[2:3],{8}1,1,2,{16}2,3,{8}4,4,
3,2,3,4,3,{16}3,2,{8}1,1,
{16}8/2x-5[16:1],,,2x/8x-4[16:1],,,{8}8x/1x-5[16:1],{16},,,,,,3,4,
{8}5b/2,5/2,6/1,6/1,{16}8/7,1,2,3,8/4,7,6,5,
{32}1h[16:3]/4h[4:1],,,,,,,2,{8}3h[16:3],{32}5,6,{16}7,{48},,,,{12}2,2,6/2h[6:1],,7,
{6}7/3h[6:1],{12}8,8/2h[6:1],,7,{6}7/3h[6:1],{12}6,6/2,{96},,,,,,,,,,,,,,,,{32}6b/1h[8:1],
5,{16}4,{32},,3/8h[8:1],4,{8}5,{32}7/2h[8:1],6,{16}5,{48},,,,{12}3h[6:1],,6,6,6,
2,2,2,8,8,8,{24}8/E2,E1,E8,E7,E6,E5,{4}4xh[4:1],
{8}Cf,{16},,,,6,4,{8}8b/Cf,,,2h[4:3],
,B4/B3,C,B8/B7,,7h[4:1],,4,
6,{16}8,8>2-4<5[16:7],{8}5,5,6,6,7,{16}7,8,
{8}1,{16}1,1<8-6-4[16:7],{8}3,3,2,2,1,1h[8:1],
,4/1,4/8,7/3,{16}7/3,8/4,1/5,2/6,3/7,4/8,5/1,6/2,
{32}7h[4:1]/3h[4:1],,,,,,,,,E7/E3,B6/B2,B5/B1,{8}E1fh[8:1]/E5h[8:1],,,7-2[8:1]/3-6[8:1],4,
{16}3b/7b,,,1/5,{32}5h[8:1]/1h[8:1],,,,,8/4,7/3,6/2,{8}5/1h[8:3],3,7,5,
{16},,1/5,2/6,3/7,4/8,{8}5/1,{16}5/1,8/4,7/3,6/2,{8}5-2[8:1]/1-6[8:1],{16}2,6,
5/1,,,7/3,{32}3h[8:1]/7h[8:1],,,,,8/4,5/1,2/6,{8}3/7h[8:3],E1f,E3f,E5f,
6,{16}2,2,{8}2,{16}7,7,{8}7,{16}4,4,{8}8-5[8:1]/4-1[8:1],7,
{16}4b/8b-3[16:1],,,8x/4x,,,{8}6h[8:5],A5,A3f,A1f,A7f,
,,5v8[8:1],8<7-4[4:1],1-4[8:1],2,{4}1,
5h[8:1]/3h[8:1],{8}6/2,6h[4:1]/2h[4:1],{32},,,,,7/3,8/4,1h[32:3]/5h[32:3],,,,8/4,7/3,6h[32:3]/2h[32:3],,,,7/3,
8/4,1/5,{8}2/6,{4}6x-3[8:1]/2x-7[8:1],{8}6/2,,,8/4,
7-4[16:1]/3-8[16:1],{16}3/7,3/7,,,{8}1h[8:1]/5h[16:5],{32},2,3,4h[32:9],,,,6,7,8h[32:3],,,,7/3,6/2,5/1,
{4}8h[8:1]/4h[8:1],{8}8/4<7[8:1],5,4/8>3[8:1],1,8/5,7,
8/4,{16}7-2[8:1]/3-6[8:1],7/3,{48},,,,,,7b/3b,E4/E8f,B8/B4,B1/B5,{24}E6/E2,,,,{8}1h[4:1],{32}5h[8:1],,,,,8/4,7/3,6/2,
{4}1/5h[2:1],,,6h[4:1],
{8}2-5[8:1],8,2,7-4[8:1],1,7,1-5[8:1],8-6[8:1],
1-3[8:1],8-4[8:1],1,8,,,,6h[8:5],
4,2,8,7h[8:7],,5,4,3h[8:3],
{32},,,,,,,,,8/4,1/5,2/6,3/7,8h[32:11]/4h[32:11],,,,,,,,,,,,7/3,2/6,5/1,,,,,6bh[4:1]/E2f,
E3,E4,E5,,,,,{8}3x,{32}3bh[4:1]/E8f,E7,E6,E5,,,,,{8}7x,{32}7bh[4:1]/E1f,E2,E3,E4,,,,,{8}2x,
{32}2bh[4:1]/E1f,E8,E7,E6,,,,,{8}8x,{32}8bh[4:1]/E2f,E3,E4,E5,,,,,{8}1x,{32}1bh[2:1]/E8f,E7,E6,E5,
,,,,{8}7,6,5,4V61[16:3]/8V25[16:3],4/8,{16},,,,,,,,Ch[16:3],
,,E1,E2,E3,E4,E5,{48},,,,{12}6,6,
{4}6q4[4:3],E7,{16}E8,,,E1,,,{8}E2,
{4}E3,{8}3,3h[4:1],E5,5x,{16},,6,7,
{8}8,{16}1x,2,1,2,1,2,{8}8/3,{16}7/2,6/1,5/8,4/7,6,5,
{4}4h[16:11],{12}8-5[16:1],8,8,{8}8x,,,2,
6h[8:1],{16}8,8>1-3-5<6[16:7],{8}6,5,6,6,7,{16}7,8,
{8}1,{16}1,1-7<5-3[16:7],{8}3,3,2,2,1,1h[8:1],
,1/5,6/2,3/7,{16}2,6,4,8,1-5[8:1],5,3,7,
{4}1<3[4:5],1b/Cf,{1},{4},{16}4/8,
3/7,2/6,1/5,
8/4,,,8>3[16:1]/4<7[16:1],{8}8/4,8b/4b,,7x-4[8:1]/3x-8[8:1],7/3,7/3,
{16},,7/3,8/4,1/5,2/6,{8}3/7,{16}8/4,7/3,6/2,5/1,{8}8-3[8:1]/4-7[8:1],{16}5,1,
8/4,,,6h[16:3],{32},,,,2b,3/7,4/8,1/5h[32:13],,,,,{8}3b,1b,7b,
{16},,4/8,4/8,{8}4/8,{16}3/7,3/7,{8}3/7,{16}6/2,6/2,{8}6-3[8:1]/2-7[8:1],1,
{16}2/6,,,8h[16:3]/4h[16:3],{32},,,,,5/1,6/2,7/3,{8}4/8h[8:3],A6f,A4f,A2f,
{4}1-5[8:1],{8}7-4[8:1],6,2-5[8:1],1,8-5[8:1],7,
{4}2,{8}2/6,7h[4:1]/3h[4:1],{32},,,,,6/2,5/1,4h[32:3]/8h[32:3],,,,5/1,6/2,7h[32:3]/3h[32:3],,,,6/2,
5/1,4/8,{8}3/7,{4}7x-2[8:1]/3x-6[8:1],7/3,{8}1/5,2/6,
1-6[16:1]/5-2[16:1],{16}1/5,1/5,,,{8}3h[2:1]/7h[8:1],{32},8,1,2h[32:3],,,,1,8,7h[32:3],,,,8/4,1/5,2/6,
{4}7h[8:1]/3h[8:1],{8}3/7-4[8:1],6,7/3-8[8:1],2,3/7,6,
6,{16}7/8,7/8,{32},,,,8b/7b,1/6,2/5,4/3,,,,,{8}3/8,2/1,{32}1b/2b,8/3,7/4,6h[32:17]/5h[32:9],
,,,,,,,,,,,,,,,,{4}C,1h[4:1],
{8}7-4[8:1],8,7,2-5[8:1],8,2,8-4[8:1],1-3[8:1],
8x-6[8:1],1x-5[8:1],8x-4[8:1],1x-3[8:1],8,1,,7,
{32}7b/1,6,5,4,{8}1,1,{32}1b/4h[8:7],8,7,6,,,,,{8}6,7,8h[8:3],
{48},,,,,,,,,,,,,5/1,6/2,7/3,8/4,5h[48:19]/1h[48:19],{4},{16},,{64},,{32}8/4,7/3,6/2,,,,,8b/E3fh[4:1],
7,6,5,,,,,{8}7,{32}1b/E8fh[4:1],2,3,4,,,,,{8}2,{32}7bx/B1fh[4:1],6,5,4,,,,,{8}6,
{32}2b/E7fh[4:1],3,4,5,,,,,{8}3,{32}8b/B4fh[4:1],7,6,5,,,,,{8}7,{32}3b/B7fh[4:1],2,1,8,
,,,,{8}2,{32}6b/B3fh[4:1],7,8,1,,,,,{8}8,{32}4b/B6fh[4:1],3,2,1,,,,,{8}1,
{32}5b/B2fh[4:1],6,7,8,,,,,{8}8,{32}4b/Cfh[8:1],3,2,1,,,,,{8}1,{32}6b/2,7/3,{16}8h[16:1]/4h[16:1],{32},7/3,6/2,5/1,
8h[2:1]/4h[2:1],{4},,{16},,,{32}B7/B6/E7/B2/E3/B3/Ch[32:5],
E
