&title=Cutie Mew Mew Magic
&artist=Toby Fox & Camellia
&first=-0.215
&des=Asyura
&lv_5=13+
&inote_5=(180)
{4},A6/E7/A7/A2/E3f/A3,{8},3,3<6[4:1],,6,,7h[8:4],,,8,8-3-5[4:1],,6,,8xh[8:4],,,5,3h[8:2],,8,7,2-5[8:1]/6,2,7pp4[2:1],7,5x,5x,,,2bh[8:3],{8},,6,6>3[4:1],,3,,2h[8:4],,,1,1-6-4[4:1],,3,,1xh[8:4],,,4,4-7[8:1],,1,2,3-5[8:1],3,7pp4[2:1],7,5x,5bx,,,
{8}2h[8:2],,4h[8:1],,3/5,6,6,7h[8:2]/4,,6,5,5,6/4-6[8:1],3,2,,3h[8:2]/7,,1h[8:1],,2/8,7,8,6h[8:2]/1,,2,3,4/7-5-1<8[8:3],,2,2,,3h[8:2],,7,{16}6,5,6,,4,,4,,3/7h[8:4],,,,2,,{8}1,1v6[8:1],,8,7-4[8:1],,7/1x,,2,{16}3,4,3,,5,,5,,6/2-6-2[4:1],,,,{8}7,8,8h[8:2],,1,1<6[8:1]*>4[8:1],,1b,,
{8},5,5-3[8:1],3,2h[8:2],,E1/D1,,7,4,4-6[8:1],6,7h[8:2],,E1/D1,,2,6,6-3[8:1],3,2h[8:2],,1,8,7/4,6,5-1[8:1]/2,2/5,,,7b/3b,,,1/5,1-7[8:1],7,6h[8:2],,E5/D5,,4,8,8-2[8:1],2,3h[8:2],,E5/D5,,5,6,7h[8:1],1,1-7-5-3-1[2:1],,5,,1v4>8[2:1],,4,,7,,
{8}4h[4:4],,D1/E1,,{16}E2,E3,E4,E5,E6,E7,E8,E1,1hx[4:1],,,,7h[4:1],,,,4h[4:1],,,,8h[4:1],,,,5h[4:4],,,,D1/E1,,,,{16}E8,E7,E6,E5,E4,E3,E2,E1,8hx[4:1],,,,4h[4:1],,,,7h[4:1],,,,3h[4:1],,,,6h[4:4],,,,E2/D2,,,,D3,D4,D5,D6,D7,D8,D1,D2,2xh[4:1],,,,{8}3h[4:1],,4w8[8:1],,,,7/5,6,2/4,3,5/7,8/1,{256}2x-5[8:1],4x-7b[8:1],,,,,,,,,,,,,,,,,,,,,,,,,,,,,,,,,,,,,,,,,,,,,,,,,,,,,,,,,,,,,,,
{16}2/4b/E5f,,,,,,,,A8/D8/A7/A3/A4/D4,,,,{8}1pp3[8:1]/5,,1bqq7[8:1]/6x,,1b/4x,,8/4,{16}7,5,6,,4,,3-7-4-6[8:3]/5,,2,,1,,1bh[8:1],,,,,,{8}2,3,4/7,{16}6,5,6,,2,4,3,,5,,{8}6/2,7,3-7[8:1]/8,3,5<8b[8:1],,5x/E2f,,,2,5-1[8:1],5,4-2[8:1],4,8,8b,,7b,4-8[8:1],4,5-7[8:1],5,1,1b,,2b,3-1[8:1]/7-5[8:1],,3b/7b,,6-1[8:1]/2v5[8:1],,6b/2b,,4-2[8:1]/8-6[8:1],,4b/8b,,1-4[8:1]/5,,
{8}1b/5bqq3b[8:1],,5bpp7b[8:1]/8x,,2x/5b,,1,{16}2,4,3,,5,,6q2-5>3[8:3]/4,,7,,8,,8bh[8:1],,,,,,{8}7,6,5/2,{16}3,4,3,,7,5,6,,4,,{8}3/7,2,6-2[8:1]/1,6,4-2b[8:1]*-8b[8:1],,A4f,,,7,5-8[8:1],5,6-1[8:1],6,2,2b,,3b,4-8[8:1],4,7-3[8:1],7,1,1b,,2b/6b,3h[8:1],4,1h[8:1],5,2-4[8:1],4,2x,5,6h[8:1],5,8h[8:1],4,7-5[8:1],5,7x,4,3,3,2/4,3,2/4,3,4x/1x,5,6,6,7/5,6,7-3[8:1]/8-3[8:1],6,8x/7x,,4bx-7[8:1],,4/1-6[8:1],2,3/1,2,1x/5x,2,5-2[8:1]/7,,5/8-3[8:1],7,6/8,7,8v3[8:1]/4x,,A8f/2bh[8:6],,,,,{16}3,4,5xh[8:2],,,,1b,,4,4,2x,,6,5,7x-4[8:1],,4,3,2xw6b[8:1],,,,A2f,,,,,,,,,,,,
{8},,,,,,,,,,6h[8:8],,,,E5,,,,4,3,2h[8:2]/4,,1,8x/3x-5[8:1],,,7h[8:5],,,,,1,,2/4h[8:5],,,,,3,3,{16}6,5,7,4,8-3[8:1]*-5[8:1],,,,8b,,,,{8}4h[8:1],2,1,7h[8:3]/8,,6,5,4<7[8:1],,2,1-5[8:1],,8/1x,,7/4,{16}3,3,5h[8:2],,1,,2,,4-8[8:1]/3,,,,1,,2,,2h[8:2],,,,3,,4-2[8:1],,,,4x/7,,,,6/1,,7,7,8h[8:2],,5,,6,,7-4-6-1[2:1]/1,,,,3,,2,,1x-5[8:1],,,,2,,3,,,,
{16}4bh[8:4]/8bh[8:4],,,,{8},,,8/4,,,7/3h[8:4],,,,5,5,{16}1,2,3,4,5-2[8:1]/1-6[8:1],,,,1bx/5bx,,,,{8}4/3,2h[8:1],8,7,1/6,2,3-5[8:1]/8,3,1,1h[8:2],
,4,3b/7b,,,6-4[8:1],6,3,2>5[8:1],,1/2x,,8,7,7h[8:1],5,4-8[8:1],,4x/2,,3,4,6/5,7,{8}2/8-2-4-6-8[2:1],,4,,8,,{16}3,4,5,6,7,8,1,2,{8}3xh[4:4]/7x
,,E6/D6,,{16}E5,E4,E3,E2,E1,E8,E7,E6,5hx[4:1],,,,1h[4:1],,,,6h[4:1],,,,2h[4:1],,,,7h[4:4],,,,E2/D2,,,,{16}E3,E4,E5,E6,E7,E8,E1,E2,2hx[4:1],,,,4h[4:1],,,,1h[4:1],,,,8h[4:1],,,,5h[4:4],,,,D8/E8,,,,D7,D6,D5,D4,D3,D2,D1,D8,7xh[4:1],,,,{8}6h[4:1],,5w1[8:1],,,,2/4,3,7/5,6,4/2,1/8,{8}7<4[8:1]/5-1[8:1],,7b/5b,,,,D8/A8f/D1/E8/E1,,A6/B6/Cf/B2/A2,,
{8}3xh[4:8]/5x,,,,,,,,B2/E2,,,,,,,,4h[4:8],,,,,,,,E8/B7,,,,,,,,5h[4:8],,,,,,,,E2/B2,,,,,,,,6h[4:3],,,,,,5-7-4-1-3b[4:4],,,,,,,,,,{4}8h[4:3],,4,4,4/8pp8qq8b[4:3],4,4,4,3<6[4:1],,7>2[4:1],,4-6-8-2-4b[4:3],,5x,6x,{8}7xb,,7,E5,7,,7,E4,6,,6/4,,5-3[8:1]/3,,B2,,1,,2,E5,2,,2,E6,3,,3-5[8:1]/5,,6,7,8-4[8:1],,8/1b,,2,4,2/4,,5/3,6,7h[8:2]/4,,8,1,1/6-8[8:1],,6/2h[8:2],,1,1,3,3,4,5,6/4<6-1-3[8:3],,A7/D8f/A8/4x,,,,5,6,7/3,,
{8}1bx/8,7/2bx,{16}3,6,3,6,5bx<7[8:1]/4bx-7[8:1],,,,{8}4/5-1[8:1],,5b/2xv4b[8:1]/Cf,,2b/Cf/8x,,7/3,{16}6,4,5,,3,,2-5-1-4[8:3]/4,,5,,2x/7,,8bh[8:1],,,,,,{8}8,7,6/2,{16}3,4,2,,7,5,6,,4,,{8}3/5,2,7-3[8:1]/1,7,5>1b[16:3],,5x/B3f,,,6,7-3[8:1],7,8-4[8:1],8,1,1b,,2b,3-7[8:1],3,4-8[8:1],4,5,5b,,6b,7<4[8:1]/3>8[8:1],,7b/3b,,1-3<4[8:1]/5-1[8:1],,1b/5b,,8<7-5[8:1]/4-8[8:1],,4b/8b,,5-2[8:1]/1,,5/7bqq5b[8:1],,1bpp3b[8:1]/7x,,1b/4x,,
{8}8/4,{16}7,5,6-1[8:1],,4,,6/3-5-8-2b[8:3],,4,,3x/8,,7bh[8:1],,,,,,{8}5,6,3/7,{16}2,1,3,,7,8,6,,5,,{8}3/4,2,1/7-3[8:1],6,7/1v6b[8:1]*v4b[8:1],,A1f,,,3,2-6[8:1],2,4-8[8:1],4,7,1b,,2b,7-3[8:1],7,5-1[8:1],5,2,8b,,7b/3b,
{8}6h[8:1],5,8[8:1],2,7-4[8:1],1,7x,2,3h[8:1],4,1h[8:1],7,2-5[8:1],8,2x,7,6,6,7/5,6,7/4,6,5x/8x,4,3,3,2/4,3,2q6[8:1]/1v6[8:1],3,1x/2x,,5bx>2[8:1],,5/8-3[8:1],7,6/8,7,8x/4x,7,4<7[8:1]/2,,4/1,2,3/8,5/6,1v6[8:1]/2x,,A1f/7bh[8:6],,,,,{16}6,5,4h[8:2],,,,8b,,5,7,1x,,4,2,8x,,1/5,2/6,3x/7x-3[8:1],,,,1bxh[8:8]/A7f,,,,,,,,4,,,,4,,,,3bx-7[8:1],,,,3/1bxw5b[8:1],,,,1bx/B8/E1/B1f/E2/B2/B3/B7,,,,
