&title=Stasis
&artist=Maozon
&first=0
&des=CupLid
&des_5=
&clock_count=4
&lv_5=14+
&inote_5=(180){4},{8},,,,,,6,
6,4,4,5,5,3,3,
6,5,3,4,5,6,4,3,
2qq7[2:3],5,6,6,5,5,4,4,
3,4,{4}6h[2:1],{24},,,,,,,,,,,,8/7,
1,2,3qq8[8:3],,,,,,3/8,7,6,{4}5,{8}B6,E5,
B3,7/B4f,,2/B5f,,1/8,,3,
{24}1/2,8,7,6pp1[8:3],,,,,,6/1,2,3,{2}4,
{1}8h[4:3]/4h[4:3],
{8}6/4h,6,3/5h,3,6/4h,6,3/5h,3,
7/4h,6,2/5h,3,7/4h,6,2/5h,3,
8/4h,6,1/5h,3,8/4h,6,1/5h,3,
8/4h,6/3,1/5h,3/6,4h/8-4[8:1],6/3,{4}1b/8b,
{8}2-6[8:1],2,1-5[8:1],1,8-4[8:1],8,7-3[8:1],7,
6-2[8:1],6,5-1[8:1],5,4-8[8:1],4,7,7,
{16}6,2,8,4,7,3,5,1,6,2,8,4,7,3,5,1,
{1}8b,
{48}8xqq5[4:3],A7/A1,D7/D2,A6/A2,D6/D3,A5/A3,,,,,,,{4}2,3,2,
1h[2:1],{8}5,6,7h[2:1],3,{4}4-8b[8:1],
4,7/1,B6/A6/B2/A2,5/3,
5/7h[2:1],{8}2,3,4h[4:1],8,{4}6,
{48}5xpp8[4:3],A6/A4,D7/D4,A7/A3,D8/D3,A8/A2,,,,,,,{4}3,2,3,
4h[2:1],{8}8,7,6h[2:1],2,{4}1-5b[8:1],
1,6/4,B7/A7/B3/A3,8/2,
{16}6,2,8,4,7,3,5,1,6,2,8,4,7,3,5,1,
{48}4xqq1[4:3],A3/A5,D3/D6,A2/A6,D2/D7,A1/A7,,,,,,,,,,,,,,,,,,,{4}7,6,
5h[2:1],{8}1,2,3h[2:1],7,{4}8-4b[8:1],
8,3/5,B2/A2/B6/A6,1/7,
1/3h[4:1],{8}5,6,{16}7bh[8:1]/5bh[8:1],,,4bh[8:1]/2bh[8:1],,,{8}1b/8b,
{48}1xpp4[4:3],A2/A8,D3/D8,A3/A7,D4/D7,A4/A6,,,,,,,{4}7,6,7,
8h[2:1],{8}4,3,2h[2:1],6,{4}5-1b[8:1],
5,2/8,B3/A3/B7/A7,4/6,
{1}1v7<5[8:3]*v3<5[8:3],
{8}7/5,{16}5h,6,{8}4,3h,2/5,{16}6h,5,{8}7,2h,
7/1,{16}6h,6,{8}3,5/4,6/2h,{16}3,3,{8}5h,4/3,
8/6,{16}8h,7,{8}1,1h,2/8,{16}7h,8,{8}6,3h,
6/4,{16}7,7,{8}2,8/1,7/3,{16}2/7-3b[8:1],2,{8}8,1/7,
{16},,4h,3,{8}5-7[8:1],6h,5/3,{16}3h,4,{8}2-5[8:1],7h,
2/8,{16}6,6,{8}3-5[8:1],4/5,3/7,{16}6-2b[8:1],6,{8}4,6/3,
{16},,1h,7,{8}1-3[8:1],2h,1/7,{16}7h,8,{8}6-1[8:1],3h,
6/4,{16}2,2,{8}7-1[8:1],1,7/2,{16}3,3,{4}4/6,
{8}4/7,{16}5>3[8:1],4,{8}6,6-2[8:1],7,7>1[8:1],{4}7,
{8}5<8[8:1],{16}5,4,{8}4,3,2>5[8:1],{16}2,1,{8}1,8,
4/6,{16}4<6[8:1],5,{8}3,3-7[8:1],2,2<8[8:1],{4}2,
{8}4>1[8:1],{16}4,5,{8}5,6,7<4[8:1],{16}7-3b[8:1],8,{4}8,
{16},,1<7[8:1],8,{8}2,2-6[8:1],3,3<5[8:1],{4}3,
{8}1>4[8:1],{16}1,8,{8}8,7,6<1[8:1],{16}6-2b[8:1],5,{4}5,
{8},B7/E7,,E3/B3,A6,A5,A4,A3,
,C,B7/E7,E3/B3,E8,E2,{4}E1,
{1}Cf/8b-4z8s4<6-2>4b[4:13],
{4},,,,,,,,,,,D7/E7/E3/D3/B7/B3,
8/Ch[4:15],8,8,8,
7,7,7,7,
6,6,6,6,
5,5,5,5-1[8:1],
{8}2-6[8:1],2,8-3[8:1],8,4-8[8:1],4,6-2[8:1],6,
5-2[8:1],5,7-3[8:1],7,1-5[8:1],1,8-3[8:1],8,
6-1[8:1],6,4-8[8:1],4,6-2[8:1],6,1-6[8:1],1,
3-7[8:1],3,5-1[8:1],5,4<7[8:1]*>1[8:1],4,{4}4b,
{8}6x-2[8:1],6x,5-1[8:1],5,4-8[8:1],4,3-7[8:1],3,
2-6[8:1],2,1-5[8:1],1,8-4[8:1],8,3,3,
{16}2,6,4,8,3,7,1,5,{24}2,3,4,6,7,8,3,4,5,7,8,1,
{1}2b,
{48}A8f,D1/D8,A1/A7,D2/D7,A2/A6,D3/D6,A3/A5,D4/D5,{12}A4,6x/2x,{48},,{16}6,5,{8}7x,{16}3,4,{8}2x,{16}7,8,
{8}6x,{16}2,1,{8}3x,{16}7,5,{8}6x,{16}2,4,{8}3x,6,
7/5x,{16}6,5,{8}7/4x,{16}6,4,{8}7/3x,{16}6,3,{8}2x/7,6,
2/4x,{16}3,4,{8}2/5x,{16}3,5,{8}2/6x,{16}3,6,{8}7x-4b[8:1]/2x-5b[8:1],8/1,
{4}7b/2b,{8}3,{32}1x/8x-4[8:1],7,{16}6,{32},,,,8x/1x-5[8:1],2,{16}3,{32},,,,1x/8x-4[8:1],7,{16}6,
{32},,,,8x/1x-5[8:1],2,{16}3,{32},,,,1x/8x-4[8:1],7,{16}6,{32},,,,8x/1x-5[8:1],2,{16}3,{32},,,,1x/8x,7,{16}6,
{32},,,,8x/1x,2`B8,3`C,B4,,,,,1x/8x,7`B1,6`C,B5,,,,,8x/1x,2`B8,3`C,B4,,,,,1x/8x,7`B1,6h[16:13]`C,B5,
{1},{48}A5f,
D5/D6,A4/A6,D4/D7,A3/A7,D3/D8,A2/A8,D2/D1,{12}A1,3x/7x,{24},{8}7/3,{16}4b,6,4,6,4,6,4,6,
3b,7,3,7,3,7,3,7,2b,8,2,8,2,8,2,8,
1b,1,1,1,1,1,1,1,1b,1,1,1,1,1,1,1,
1b,1,1,1,1b,1,1,1,1b,1,1-5[8:1],1,1b,1,{8}1b,
{16},,,,6b/4,7,8,1,4b,3,2,1,8/7b,6,5,4,
1b,2,3,4,5/6b,7,8,1,4b,3,2,1,8/7b,6,5,4,
{8}1,1,{32}1/6h[2:1],2,3,4,{16}5,{32}7,8,{48}1,2,3,4,{24}5,{48}7,8,1,2,3,4,{4}5b-1b[8:1],
{8},,,B6/B2/B7/Cf/B8/B1/B5/B4/B3/A8/E8/E1/E5/A4/E4,,,,,2b/6b>4[8:1],
{16}7,8,{8}6/1,2-6[8:1],{16}3,1,{8}2>5[8:1],1,2/8,
7>1[16:1],{16}6,5,{8}7/4,3-7[8:1],{16}2,4,{8}3>8[8:1],5,3/6,
{32}7,6,5,4,3x,2x,1x,8x,{8}7x,4/6x-2[8:1],{16}7,5,{8}6<1[8:1],5,6/4,
3<5[16:1],{16}2,1,{8}3/8,6-2[8:1],{16}7,5,{8}6<1[8:1],4,6/3h[8:3],
{32},2,,4,5,6,7,8,{8}1<6[8:1],4>1[8:1],1s5[8:1],4,7,7,
6/4,{16}5,3,{8}4<7[8:1],1>4[8:1],4<5-1[8:1],1,8,8,
{32}7b/2b,6,5,4,3,2,1,8,{8}7-3[8:1],1>3[8:1],7<5[8:1],1,7,4,
{16}3,7,1,5,2,6,4,8,3,7,1,5,{32}2,3,4,5,6,7,8,1,
{8}6/2b<8[8:1],{16}3,4,{8}2,6-2[8:1],{16}7,5,{8}6<1[8:1],5,6/4,
3<5[16:1],{16}2,1,{8}3/8,7-3[8:1],{16}6,8,{8}7<4[8:1],1,7/2,
{32}3,2,1,8,7x,6x,5x,4x,{8}3x,2x-6[8:1],{16}3,1,{8}2>5[8:1],1,2/8,
7>1[16:1],{16}6,5,{8}7,{16}3,3,4bh[8:1]/2bh[8:1],,,5bh[8:1]/4bh[8:1],,,{8}7bh[8:3],
{32}5b,6,,8,1,2,3,4,{8}5>2[8:1],8<5[8:1],5s1[8:1],8,3,2,
2/8,{16}1,7,{8}8>3[8:1],5<6-8[8:1],8>1-5[8:1],5,,3,
{32}6b/3bv8[8:1],2,1,8,7v4[8:1],6,5,4,{8}3x,7x<5[8:1],,7x/3x>1[8:1],,3x/7xv4[8:1],
,7x/3x,{4}2v5[8:1],2x/6v1[8:1],6x,
{1}8h[4:7]/4h[4:7],
{8},,,,,,,,7,
6,5,4,,5,4,3,
2,1,8,7,6<8[8:1]/4>2[8:1],5,{4}6/4,
{8}1,7,{16}3,4,3,4,{8}2,5,{16}6,5,6,5,
{8}7,8,{16}2,1,2,1,{8}3,8,{16}7,8,7,8,
{8}6,3,{16}5,4,6,5,{8}7,{16}4,5,3,4,{8}2,
{16}5,4,6,5,{8}7,2,3>1[8:1]/5<7[8:1],4,{4}3/5,
8h[1:3],{8}E6,E5,E4,E3,,E8,
E7,E6,E5,E4,E3,E2,,A6,
A5,A4,A3,A2,A1,,,2,
{2}3h[2:1],{8}7h[8:3],{16},,,,2,8,
{4}1h[8:21],{8}E4,E5,E6,E7,,E2,
E3,E4,E5,E6,E7,E8,,A3,
A4,A5,A6,A7,{2}A8,
{8},5,4,6,,3,7,2b,
E
