&title=ReviXy (is Dead or Alive remix)
&artist=ikaruga_nex/Holly
&first=0.13
&des_5=IDrA
&lv_5=14
&des=IDrA
&inote_5=(160){4},,,,,8-6pp8-5v4[2:3],
,,,,,,{1}3-1v8-6-8v1-3[4:7],
,5-1-6-2[4:3],
4-8-3-7[4:3],
{16},,,,,2,,,2,,,3,,,{8}3,
{16},2/5,,,,,{8}5,{16},5,,,6,,,6,
,,{8}3/7,{16}6x,4,5,3,4x,3,6,5,6x,3,4,2,
6x,5,7,2,4x,3,7,5,6x,2,4,3,6x,5,7,3,
4x,2,7,8,7x,2,1,2,7x,8,6,2,1x,3,7,8,
6x,1,1,8,8x,2,2,7,7x,3,3,6,6x,4,4,5,
{8}3xh[16:1],6xh[16:1],4xh[16:1],{16}5x,4x,6x,3x,5,4,7x,5,6,2,
4x,3,7,5,6x,3,4,2,6x,5,7,1,4x,3,8,5,
6x,2,2,4,3x,7,7,5,6x,3,3,4,2x,6,6,5,
7x,1,1,4,3x,8,8,2,2x,7,7,3,3x,6,6,4,
{8}3bxh[16:1],6bxh[16:1],{4}4bx>8-3-7[4:3],5,5,
5,5<1-6-2[4:3],4,4,
4,8-4[4:1],5,5,
1-5[4:1],4,4,4<7b[8:1],
{32}8/4,1,2,3,,,,,{8}4,4,6,6,3,3,
7-3[8:1],7,8-4[8:1],8,1-5[8:1],1,2-6[8:1],2,
7,7,{16}8,4,7,3,6,2,6,2,{24}6,7,8,1,2,3,
4,5,6,7,8,1,{8}2bx-6[8:1],3,2bx/8bx-5[8:1]*z4[8:1],7,{4}8bx,
E7f/E3f/A6/A2,{8}7,7-2[8:1],{16}5,4,{8}7,{4}1h[4:1],
5,{8}1,{16}3,4,1,6,5,8,{24}2x,3x,{6}4x,
{8}6/5,3/4,6/2,{16}5,7,3-8[8:1],4,2,6,{8}3-5[8:1],5-1[8:1],
{4}3,{24}8x,7x,{48}6x,,,,,4/2,{96},,,,,,,,,,,,,,,,{32}8/6,,,,,,{16}3,6,1,
{8}8h[8:1],5,3/6,{16}4,2,6-1[8:1],5,7,3,{8}6-4[8:1],4-8[8:1],
{4}6,{16}2-5[8:1],1,3,8,{8}2,{16}7,7,{8}4bx/8bx,3xh[16:1],
3xh[16:1],3xh[16:1],{16}8,4,6,1,5,3,7,2,8-3[8:1],5,3,6,
{4}8/4h[4:1],{16}2b,,,1b/5,,,{8}8b/4,{16}7x>2[8:1],5,4,5,
{4}7,{16}3-8[8:1],4,3,4,{8}3,5,{16}6-1[8:1],5,6,5,
{8}6,4,{16}3>8[8:1],4,3,4,{8}3,5,{16}6<1[8:1],5,6,5,
{8}6,4,2,2-5[8:1],5v8[8:1],{16}2,6x,{8}6,7-4[8:1],
4,7/8,1,6-1[8:1],1v4[8:1],{16}6,2x,{8}2,3-8[8:1],
8,3/4,5,1-5[8:1],5-2[8:1],{16}1,7x,{8}7,6-2[8:1],
1,6/8,1,5-1[8:1],1-6[8:1],{16}5,3x,{8}3,2-6[8:1],
5,2/4,5,7-4[8:1],4-8[8:1],{16}7,2x,{8}2,1,
1,8/2,{16}7,7,,6/4,,,2,2,,3/5,,,5,
4,6,3,7,8,6,2,7,8,6,2,{8}7-5[8:1],3,
{4}7,{16}2,1,3,7,2,1,3,7,{8}2-4[8:1],6,
{4}2,{16}6,1,7-2[8:1],8,6,1,{8}7-4[8:1],4-1[8:1],7,
{4}3,{16}3,8,2-7[8:1],1,3,8,{8}2-5[8:1],5-8[8:1],2,
{4}6,{16}1-3[8:1],2,8-4[8:1],7,{8}1-5[8:1],8-6[8:1],1,8,
{4}4,{16}7,8,5,4,7,8,5,4,{8}7-4[8:1],3,
{4}7,{16}2,1,4,5,2,1,4,5,{8}2-5[8:1],6,
{4}2,{16}6,5,7-3[8:1],4,6,5,{8}7-1[8:1],1-5[8:1],7,
{4}3,{16}4-2[8:1],3,5-1[8:1],6,{8}4-8[8:1],5-7[8:1],4,5,
{4}1h[4:1],{8}3,1-6[8:1],6-8-2[8:1],{16}1,5x,{8}5,4-8[8:1],
1,4/2,2>5[8:1],5-1[8:1],2,{16}8x,8,{8}8v5[8:1]*-3[8:1],2,
{4}8,{8}6/2,8-3[8:1],3-1-7[8:1],{16}8,4x,{8}4,5-1[8:1],
8,5/7,7<4[8:1],4-8[8:1],7,{16}1x,1,{8}1-6[8:1]*-4[8:1],7,
{4}1,{8}3/7,4-2-8[8:1],8v3[8:1],{16}4,6x,{8}6,5-8[8:1],
4,5/3,2>5[8:1],5v2[8:1],2,{16}8x,8,{8}8w4[8:1],1,
{4}8,{16}1b/7b,1/7,,3h[16:1]/5h[16:1],,,8b/2b,8/2,,6h[16:1]/4h[16:1],{48},,,,,,{24}8x/4x,
7/3,6/2,5h[8:1]/1h[8:1],,,,,,,,,{8}4>1[8:1],1<6[8:1],{4}4,
{8}5s1[4:1],2bx,{24},,{6}3bx,4bx,{12}1bx/5bx,5bx/1bx,8bx/4bx,8bx/4bx,
{8}8bx/4bx,7-3[8:1],,,,2-6[8:1],,,,8-4[8:1],
,,,1-5[8:1],,,,,{4}8-4-6-1[2:1],
2,2,
3-7-5-2[2:1],8,8,1,
1,{8}1/2,2/1,3/4,4/3,6/5,6/5,
8/7,8/7,{16}1,8,2,7,1,8,2,7,{8}4-1[8:1],Ch[8:1],
{4}A4f,{8}7,7,{16}3,4,{8}2-5[8:1],7-1[8:1],2,
7,4,7b/3b,{16}6-1[8:1],5,{8}7,6,{16}2,2,{8}4-8[8:1],
4,1x,2,2,{16}6,5,{8}7-4[8:1],2-8[8:1],7,
2,5,2b/6b,{16}3-8[8:1],4,{8}2,3,{16}7,7,{8}5-1[8:1],
5,8x,7,7,{16}3,8,{8}2-7[8:1],6-3[8:1],2,
6,1,1b-5[8:1],{16}6,6,{8}1-3[8:1],7,1,6-1[8:1],
7,6x,{16}2,2,{8}7-3[8:1],8-4[8:1],7,8,5,
5b,{16}7,7,{8}2-6[8:1],1-5[8:1],2,1,4,4b,
7b/3b,{24}2,6,2,{8}6,{16}3b,4,{8}2,{16}6b,5,{8}7,{16}3b,4,
{8}2,{16}6b,5,{8}7,{16}2b,2,{8}4,{16}7b,7,{8}5,{16}2b,2,
{8}4,{16}7b,8,{8}6,{16}2b,1,{8}3,{16}7b,8,{8}6,{16}2b,1,
{8}3,{16}6b,6,{8}8,{16}3b,3,{8}1,{16}6b,6,{8}8,1b,
1,7bx/3bx,4,{16}6b,3,4,3,8b,5,6,5,1b,4,
5,4,8b,3,4,3,7b,5,6,5,1b,4,5,4,8b,3,
4,3,7b,5,6,5,8b,3,4,3,1b,4,5,4,{8}7b,
{16}4,4,5,5,8x/7x,7/8,,2x/1x,{8}2/1,{16}5x/4x,4/5,,7x/2x,{8}7/2,
{32}8,7,6,5,4,3,2,1,{8}8b/B6/B5/Cf,8,3,{16}2,4,3,5,4,6,
{8}5,7,{16}6,6,,4,{8}4,{16}6,5,7,6,3,4,
{8}2,5/3,1b,1,6,{16}7,5,6,4,5,3,
{8}4,1,{16}2,2,,5,{8}5,{16}3,4,2,3,6,5,
{8}7,6/4,8b,8,3,{16}2,4,3,5,4,6,
{8}5,8,{16}6,6,,3,{8}3,{16}7,5,6,3,4,2,
{8}4,3/5,7b,7,2,{16}2,1,3,8,4,7,
{8}5,6/3,{16}7,7,,2,{8}2,{16}6,8,7,2,1,3,
{2}Ch[4:1],{16}6x,6x,,,{4}2xq4[8:3],
{8},,8x,7x,{16}6xq8[16:5],6x,,,{8}1x,2x,
{16}3xp1[8:3],3x,,,,,{8}5x,{16},5x,,,{8}5x,6x,
{16}7xs3[8:3],7x,,,,,{8}1x,{16},1x,,,,4x/2x,,,3x,
3x,,,,,,2x,2x-4[8:1],,,7x,7x-5[8:1],,,3x,
3x,,,4x,5x,4x,,6x/3x,{4}6x/3x,{8}3x-1[8:1],4x-8[8:1],
3x,4x,2x-4[8:1],1x-5[8:1],2x,1x,3x-8[8:1],7x-4[8:1],
3x,7x,{16}1x,1x,{8}1x,2x/8x,{16}6x,5x,{8}6x,4x/7x,
{16}2x,2x,3x,3x,{4}4x-1-5-8[2:15]*-7-3-8[2:15],{1},,,,,,,{4},,,{16}2,
2,,,7,7,,,6/5,,,5/4,
,,{8}4/3,,2,{16},2,,,4/3,,,5/4,
,,{8}6/5,,7,{16},7,,,6/5,,,5/4,
,,{8}4/3,,2,{16},2,,,3/4,,,5/4,
,,{8}6/5,,7pp2[2:1],{16},5,,,5,,,4,
,,{8}4,{16},,,3pp6[2:1],,,{8}1,{16},1,,,8,
,,8,,,{8}7-5-8-4[2:1],{16},2,,,2,,,3,
,,{8}3,,3,{16},2,,,{4}2q5[4:1],
{2}Ch[4:1],{4}7-1v6-8[8:5],4,
4,3,2-8v3-1[8:5],5,
5,6,6>4q8[8:5],1,
1,2,2<8q4[2:1],5,
6,{8}7,{16}7,5,{8}6,8/4,5-1[8:1],5,
8-4[8:1],8,{4}2h[1:1],6,6,
5,{8}5,{16}2,4,{8}3,1/5,4-8[8:1],4,
1-5[8:1],1,{4}7h[1:1],4,4,
3,{8}3,3/4,6,5/6,3,2/4,
6,5/7,3,2/5,6,4/7,3,4/1,
6,8/5,4b/2b,3,7/5,6,2/5,3,
6,6/7,7,7/8,8,1/8,1,1/2,
2,3/2,{16}6,5,7,4,8,3,{8}B1f,{16}3,4,2,5,
1,6,{8}B8f,{16}6,5,7,4,8,3,1,2,8,7,1,6,
2,5,3,4,{32}3b,2,1,8,7,6,5,4,3,2,1,8,7,6,5,4,3,2,1,8,7,6,5,4,
3,2,1,8,7,6,5,4,{4}3h[2:1]/7h[8:5],,,4-1b[8:1],
{8}7/4b,7,{16}3,4,{8}2-5[8:1],7-4[8:1],2,
7,3,7b/3b,{16}6<1[8:1],5,{8}7,6,{16}2,2,{8}4-8[8:1],
4,1x,2,2,{16}6,5,{8}7-4[8:1],2-5[8:1],7,
2,6,2b/6b,{16}3>8[8:1],4,{8}2,3,{16}7,7,{8}5-1[8:1],
5,8x,7,7,{16}2,4,{8}3-8[8:1],5-1[8:1],3,
5,2,7b/3b,{16}6v1[8:1],5,{8}7,6,{16}3,3,{8}2-6[8:1],
4,2x,8,8,{16}7,5,{8}6-1[8:1],4-8[8:1],6,
4,7,2b/6b,{16}3v8[8:1],4,{8}2,3,{16}6,6,{8}7-3[8:1],
5,7x,1,1,{16}2,5,{8}3>2-8[8:1],7<6-4[8:1],3,
7,2,1b-6[8:1],{16}5,5,{8}1-4[8:1],4,1,5-8[8:1],
6,5x,2,2,{16}7,4,{8}6<7-1[8:1],2>3-5[8:1],6,
2,7,8b-3[8:1],{16}4,4,{8}8-5[8:1],5,8,4-1[8:1],
3,4x,7,7,{16}2,1,{8}3-8[8:1],8-2[16:1],3,
5-1b[8:1],4,5b,2,{16}7,8,{8}6-1[8:1],1-7[16:1],6,
4-8b[8:1],5,{4}4b/6bxh[8:7],{16},,,,,,,,,,,,2,
5,,7,{8}4,{16}2,5,,7,{8}4,
5-2[8:1]*-8[8:1],6/4,{4}5b,{8}3/7,6,{16}6-3[8:1],5,7,4,
{8}6b,1b,1-5[8:1],{16}7,7,{8}1,6,{16}6-8[8:1],5,{8}7,
6b,3b,5/2,{16}3,4,{8}2,{16}3-6[8:1],4,1,5,{8}3b,
8b,8-4[8:1],{16}2,2,{8}8,3,{16}3-1[8:1],4,{8}2,3b,
6b,6,7,{16}7,8,{8}6,{16}7-2[8:1],8,5,1,{8}7b,
4b,4-8[8:1],{16}6,6,{8}4,7,{16}7-5[8:1],8,{8}6,7b,
1b,1,2,{16}2,4,{8}3,{16}7,7,{8}5v8[8:1]*v2[8:1],3b,
{4}5b,{8}7b/3b,{16}8b/4b,8b/4b,,,{8}1b/5b,,1b/5b,
8b-6p5-3[8:11]/4b-2p1-7[8:11],7b/3b,{4}A8f/A4f,{8},,,,,,,,,,,6b/2b,
{4}7b-2[8:1]/3b-6[8:1],B7f/B3f/A7/A3,{8}5/1,{16}7,3,6-1[8:1],2,7,3,
{8}6b,2b,2/8,{16}1,7,{8}1,{16}2,6,3-8[8:1],7,2,6,
{8}3b,7b,7/1,7/1,8/2,8/2,1/3,1/3,
2/4,2/4,3/5,3/5,4/6,4/6,5/7,5/7,
8b,8b,{16}2,1,2,1,3,8,3,8,3,7,4,7,
4,6,5,6,5b,,,2b/6b,,,{8}3b/7b,{16},4b/8b,,,{8}6b-1[8:1]/2bv5[8:1],
5b/1b,{4}2/6,{8}8/4,{16}3-5[8:1],4,{8}2,3,
{16}7,7,4,4,{8}6,2/5h[8:1],{16}3,4,2,5,{8}1-7[8:1],1-3[8:1],
1-5[8:1],1,{16}1,,,4,{4}4h[4:1],{16}6,5,7,4,
{8}6,5/7h[8:1],{16}3,4,2,5,3,6,{8}4,{16}7,5,6,4,
5,3,4,2,{4}3b,{8}1/5,{16}6-4[8:1],5,{8}7,6,
{16}2,2,5,5,{8}3,7/4h[8:1],{16}6,5,7,4,{8}1-5[8:1],8-4[8:1],
1,8,{16}3,,,6,{4}6h[4:1],{16}3,4,2,5,
{8}3,4/2h[8:1],{16}6,5,7,4,6,3,{8}5,{16}2,4,3,5,
4,6,5,7,{8}6b,2/8,{16}1,4,{8}3,{16}7-3[8:1],5,8,3,
{8}7x,1x,1-5[8:1],{16}7,7,{8}1,6,{16}4,5,{8}3,
6x,2x,{4}7h[8:1]/3h[8:1],{8}6/2,{16}2-4[8:1],1,{8}3,2,
{16}6,6,3,3,{8}7,3/8h[8:1],{16}2,1,3,8,{8}5-1[8:1],4-8[8:1],
5,4,{16}7,,,2,{4}2h[4:1],{8}1,1,
{16}1,8,7,6,8,7,6,5,7,6,5,4,6,5,4,3,
5,4,3,2,{32}4,3,2,1,8,7,6,5,4,3,2,1,8,7,6,5,4,3,2,1,8,7,6,5,
3/4,2,1,8,7,6,5,4,{8}3b,{16}6,5/6,,,3,3/4,,6,{8}6/5,
7/8,1/2qq3V57-1[2:3],{4}B3f/B4/E4/A3,{1},{4},,,{16}8,
7,8,7,1,6,1,6,2,5,2,5,
2,4,3,4,3,5,5,6,6,7,7,8,{8}8,1h[8:1],
7h[8:1],2h[8:1],{4}6h[8:1],{16}3,3,,,{4}2h[8:1]/4h[8:1],
{8}5/3,5/3,4,4,{16}6,6,,,{4}7h[8:1]/5h[8:1],
{8}6/4,6/4,5,5,{16}3,3,,,{4}4h[8:1]/2h[8:1],
{8}5/3,5/3,{16}6,6,{8}6,,7-5[8:1],8-4[8:1],7-3[8:1],
8,7,{4}2h[8:1],{16}6,6,,,{4}7h[8:1]/5h[8:1],
{8}4/6,4/6,5,5,{16}3,3,,,{4}2h[8:1]/4h[8:1],
{8}3/5,3/5,4,4,{16}6,6,,,{8}5h[#0.1875]/7h[#0.1875],,
4/6,4/6,{16}3,3,{8}3,,2-4[8:1],1-5[8:1],2-6[8:1],
1,2,{4}7h[8:1],{16}3,3-8[8:1],,,{4}4h[8:1],
{8}5,5,7,7,{16}6,6-1[8:1],,,{4}5h[8:1],
{8}4,4,2,2,{16}3,3-8[8:1],,,{4}4h[8:1],
{8}5,5,{16}7,7,{8}7,,8-4[8:1],5-1[8:1],8,
5,2,2b,2/1,1/2,1/8,8/1,8/7,
8/7,7/6,7/6,6/5,6/5,5/4,5/4,4/3,
5/2,6/1,{16}7,4,6,2,5,3,7,4,6,2,5,3,
6,1,7,3,8,8,,5/3,,,1,1,,4/6,,,{8}5b/1b,
4b/8b,{32}5qq1V37[0.375##3.75]/1bqq5V73b[0.375##3.75],2b/6,3b/7,4b/8,,,,,,,,,,,{16},
E
