&title=Gungnir Fracture
&artist=Kry.exe
&first=0.044
&des=BITF
&lv_5=14+
&des_5=BITF
&inote_5=
(240){4},,,,,,,,,Ch[4:1],
{32},,,,,,,,B1/B5,B2,B6,B3,B7,B4,{16}B8,
{1}1x-6[4:5]*q4[4:7],
,8-3[4:5]*p5[4:7],
,1s5[4:5]*>7[4:7],
,3V17[4:7]*p7[4:7],
,5<1[4:7],
,5>1[4:7],
,5<5[4:7],
,1w5[4:5],
{8},,,,,,,,6x,
4,5,3,6,4,5,3,
6,4,5,3,6,4,5,3,
7x,5,6,4,7,5,6,4,
7,5,6,4,7,5,6,4,
5x,3,4,2,5,3,4,2,
5,3,4,2,5,3,4,2,
7x,1,8,2,7,1,8,2,
{4}7,{16}1,2,3,4,{4}5,8,
4/6h[4:1],4,4/5,6/3,
4/5,5/3h[4:1],5,6/4,
6/5,6/7,7/8,{8}8/1,{16}2,7,
{4}2,1/3,3/4,{8}3/6,{16}4,5,
{4}4,6/5,5/6,{8}7/4,7,
{4}7/4,8/1,7/2,{8}6/3,{16}5,4,
{4}7,8/1,7/2,{8}6/3,{16}4,5,
{1}2-7[4:1],
{4}3bh[4:1],{8}5,3bh[4:1],,5,{4}3bh[4:1],
{8}5,6,3,3,3,3,3,3,
{4}6bh[4:1],{8}4,6bh[4:1],,4,{4}6bh[4:1],
{8}4,5,3,6,{2}1b,
{8}3/6h[8:1],3,3/5h[8:1],3,6/4h[8:1],6,6/3h[8:1],6,
1,1,8,8,2,2,2,{16}8,7,
{4}6/3h[4:1],4,2/6h[4:1],5,
8/1,8/1,{8}2/6,2/6,{16}2/6,3,4/8,7,
{4}6/1>3[8:1],1/7,8<6[8:1],2/8,
1-3[8:1],1/7-5[8:1],7/8-4[8:1],{8}8,{16}7,6,
{4}5,1,8,3,
{8}7,2,6,3,{16}5,4,5,4,{4}8b,
{8}7/1-3[16:1],7,{4}7/1,2/8-6[16:1],2/8,
{8}7/1>3[16:1],7,{4}7/1,2/8<6[16:1],2/8,
3/4,4/2,5/6,7/5,
8/1,8/1,{8}7/2,7/2,{16}3,6,3,6,
{4}4-8[16:1],4,5-1[16:1],5,
3-8[16:1],3,{8}6,6,{4}6,
{32}7b/2bh[8:1],6,{16}5,{8}4,{32}2b/7bh[8:1],3,{16}4,{8}5,{32}7b/1bh[8:1],6,{16}5,{8}4,{32}2b/8bh[8:1],3,{16}4,{8}5,
8/1,8/1,2/7,7/2,{16}3,6,4,5,{32}3,2,1,8,7,6,5,4,
{1}3-7[2:3]/7-3[2:3],
{8},,,,,,,,5/1,
,,1/5,,,{4}3/7,
{8},1/5,,,{4}7/3,1b/5b,
{8}1b/5b,E8,E3,A5,,C,,E8,
,E2,,E8,E7,E6,E2,E3,
{6}E4,E8,E3,E7,E2,E6,
{1}Ch[2:1]/B2h[8:5]/B1h[4:3]/B6h[16:9]/B5h[16:11],
{8}8b<5[0.5##0.125],,,1,{4}8b,2,
{8}1b>4[0.5##0.125],,,8,{4}1b,7,
{8}8b<5[0.375##0.125],,,8b,1,1,1,1,
{1}5w1[0.5##0.25],
{8}1bx/2bxh,2bx/1bxh,{4}1bx/2bxh,2bx/1bxh,{8}1bx/2bxh,{16}7bx,8bx,
{8}7bx,6bx/1bxh,{16},1bx/6bxh,,,{8}6bx/1bxh,2bx/5bxh,{16}8bx/7bx,1bxh/6bxh,2bx/5bx,3bxh/4bxh,
,,,,7bx,6,5,4,6bx,5,4,3,5bx,4,3,2,
{1}4bxz8b[4:3],
{4}7,7,,7,
,7,7,7,
5,5,,5,
,5,5,5,
1,1,,1,
,1,1,1,
3,3,,3,
,3,3,3,
7,7,,7,
{16}E7h[4:1],E6h[4:1],{8}E5h[4:1],{16},,,,E1,E2,{8}E3,,,{4}Ch[16:1],
E3h[16:3],,E6h[4:1],
3,3,3,3,
7,7,7,7,
B1h[8:1],E8h[8:1],{16}E3h[16:0],E7,E4h[16:0],E6,E5h[16:0],B8,B1h[16:0],B7,
B2h[16:0],B6,B3h[16:0],B5,B4h[16:0],Ch[16:3],,,,,,,{4}B8h[4:1],
3,3,3,3,
E6h[16:1],E2h[4:1],,E8h[8:1],
{16}E3h[16:3],E4h[16:11],,,,,,,,,,,,,,,{4}7,
7,7,7,
3,3,3,3,
7,7,7,7,
E1/E4h[8:1],E6h[8:1],E5/E3h[8:1],E7h[8:1],
E5/E4h[16:1],{16}E8h[16:3],E7h[16:3],{8}E6h[16:3],{16}E5,,,E3h[16:1],,,,,{8}E1,
E7h[8:1],,,E5,E4h[16:3],,,{2}E5,
E5,
E1,E5,
E5,E5,
E1,E5,
E5,E5,
{1}E5h[16:0]/8s4[4:5]*-4[4:5],
{2},1b-5b[16:1],
{8}6/4,6,3/5,3h[2:1],7,7,6,6,
4,5,4,5h[2:1],,2,2,2,
7/3,7,6/2,6h[8:3],,5,5,5,
2/6,2,3/7,3h[8:3],,4,4,4,
6/4,6,3/5,3h[2:1],7,7,6,6,
4,5,4,6h[2:1],,2,2,2,
5,5-1b[16:1],,4-8b[16:1],,6-1b[8:1],{16},,2,3,
{4}4,{8}5,5,6/4,6/4,3/7,3/7,
2-4[8:1],8,2,8,2-5[8:1],8,2,8,
1-3[8:1],7,1,7,1-4[8:1],7,1,6,
1-7[8:1],5,1-3[8:1],5,1-7[8:1],5,1-3[8:1],5,
1-4[8:1],7-5[8:1],1,7,2-4[8:1],8,{4}2,
7-5[8:1]/8-4[8:1],7/8,2-4[8:1]/1-5[8:1],2/1,
7-4[8:1]/8-5[8:1],7/8,2-5[8:1]/1-4[8:1],2/1,
8/6,7/1,8/2,1/3,
{8}1/2,1/2,8/7,8/7,{16}5,6,5,6,5,6,5,6,
{4}5>1[4:1],1<5[4:1],5>1[4:1],1<5[4:1],
5>1b[4:1],1<5b[4:1],{2}5-1b[8:1],
{8}7-5[16:1],8-4[16:1],7,8,1-5[16:1],2-4[16:1],1,2,
7-5[16:1],8-4[16:1],7,8,1-5[16:1],2,1,2,
6,6-8[8:1],,6/4,,2,3,2,
4,4-2[8:1],,4/5,,7,8,7,
1,2,3,4,6,5,7,4,
8,1,8,7,{16}8,8,{8}8,7/1,1/7,
{4}7-4[8:1]/1-4[8:1],7/1,2-5[8:1]/8-5[8:1],2/8,
7v4[8:1]/1-4[8:1],7/1,2v5[8:1]/8-5[8:1],2/8,
7v4[8:1]/1v4[8:1],7/1,2v5[8:1]/8v5[8:1],2/8,
{8}3,7,3,7,2,6,2,6,
1-3[16:1],1,{4}1b,8-6[16:1],8b,
{8}2-4[16:1],2,{4}2b,7-5[16:1],7b,
{8}1/2,1/2,3/8,3/8,4/7,4/7,6/5,6/5,
8/1,7/2,6/3,4/5,{16}1,8,2,7,3,6,4,5,
{8}Ch[4:3],,,B8/B1/B2/B7,,,{4}B3/B4/B5/B6,
{8},,,,,,,,Ch[4:3],
,,B8/B7/B6/B5,,,{4}B1/B2/B3/B4,
{8},,,,,,,,7/8,
,,6/1,,,{4}5/2,
{8}1/2,,,8/3,,,4/7,7/4,
{6}7/4,6/3,5/2,1/4,8/3,7/2,
{1}1-6-3[2:1]/6-1-4[2:1],
{16}1,8,1,8,1,8,1,8,1,8,1,8,1,8,1,8,
2,8,2,8,3,8,3,8,4,8,4,8,4,8,4,8,
{1}4b-8[16:1],
E
