&title=Don't Die
&artist=Paul Bazooka
&first=0.02
&des=Don't Die
&des_6=
&lv_6=14
&inote_6=(175){1},
{1},
{32}E7,B7,C,B3,
{8}E3,,,,,,3b,
{4}4h[2:1]/2,,E3/A2,,
{8}3h[4:1]/4,,5,,6,5,A7/E8,,
{16}6h[4:1]/5,,,,4,,,,3,,4,,3,4,5,,
{16}6h[4:1],,5,4,3,,4,3,2,,1,,2/8<5[8:1],,,,
{8}3,,3,4,5,6,7/4h[4:1],,
{8}5,6,7/5h[4:1],,6,7,8/4,,
{8}3/E1,3,3/E8,3,2/E7,2,2/E6,2,
{8}1/A4,2/A5,3/A6,4/A7,5bp4[16:5]/A8,,,,
{8}8,7,6h[4:1]/5,,5,4h[4:1]/5,,5,
{8}5/7h[4:1],,6,5,4,3h[4:1]/4,,4,5h[4:1]/4,,4,4/2v1[16:3],,,4,5,
{8}6v5[16:3],7/8,,1,2z6[16:3],3/4,,,
{8}8,7h[4:1]/8,,1,1/2h[4:1],,8,8/6h[4:1],
{8},7,8,1,2h[4:1]/1,,8,8/7h[4:1],
{8},1,2<7[8:1],3/4,,,6/5,4,3,2,6pp3[2:1]/1,8,7,,,,
{8}5b-1[8:1]*v8[8:1],,5,,2/4<7[8:1],3,4/1,,
{16}2/8,,3,,2/4,,1,,6,5,6,5,7,,8/6,,
{8}1-3[8:1]/5-3[8:1],,5V71[16:3]/1,,2,3,4,,
{16}3/5,,6,5,7,,8/4,,2,1,2,1,3,,2/4,,
{8}E7/B6,E5/B4,E1/B8,E3/B2,6,5,7p6[4:1]/E1/A1,,
{8}4,3,2-4[8:1]*-5[8:1],,2-8[8:1]*-7[8:1],,2,,
{16}6/5,,4/5,,3/4,,2,2,1,,8/3,,7/4,,6,,
{16}4/5h[8:1],3,,4h[8:1]/5,6,,4s8[16:3]/5h[8:1],3,,5,,,,,,,
{8}1/2>5[8:1],8,7,,7>2[8:1]/5,6,7/4,,
{8}4<7[8:1]/3,2,1,2,8/3,7,6/2,,
{8}1-7[8:1]/5-7[8:1],2,1V35[16:3]/5,,6,7,8,,
{8}1/2,3,4/8,3,2h[8:1]/6,4h[8:1],5h[8:1],7h[8:1],
{8}8>3[8:1],7,6,5,4/6,7,8/2q3[4:1],,
{8}5,6,7-5[8:1]*-4[8:1],8,7-1[8:1]*-2[8:1],,7,,
{16}B6/E6,,E4/B3,,7,8,7,,6,,3,4,3,,2,,
{16}1/8,,2/7,,3,4,3,4,5,4,5,4,5,6,5,6,
{16}7-3[8:1]/4,,,,2V48[4:1],,1,,8,,7,,6,,6,5,
{16}7-3[8:1],,8,,1,,2,,1-6[8:1]/4-7[8:1],,,,1/4,,,,
{16}8<5[8:1]/5,,,,4,,3,,2<7[8:1]/1,,3,,4h[4:1],,,,
{16}5,,3,,2/6,,7,,3,4,2,,1/3,,8/4,,
{16}7>2[8:1]/5,,,,5,,4,,5h[4:1]/3,,4,,3,2/4,,6,
{16}7v4[8:1]/5,,3v8[8:1],,7,,3,,5,,1,,2,1,2,1,
{8}2h[8:1],4h[8:1],5h[8:1],7h[8:1],3h[8:1],4h[8:1],5h[8:1],6h[8:1],
{16}5,,8/4,,4-8[4:1]/8,7/3,6/2,1/5,,,,,,,,,
{1}1b>7[4:13]/7b<1[4:13],
{1},
{1},
{1},
{2}8<5[4:3],B3/E4,
{2}1>4[4:3],B6/E6,
{8}E1,E8,E7,E6,E4,E3,E2,E1,
{8}A1/5,A2/6,A3/7,A4/8,1bv8[8:1]/A5,,,,
{8}3/4,4,3,5,3,6,3,7,
{8}3,8,3,1,3,2/3,3/4,4/5,
{8}5/6,7,6,8,6,1,6,2,
{8}6,3,6,4,6,6/5,4/5,3/4,
{4}2h[8:1]/3h[8:1],2h[8:1]/1h[8:1],2h[8:1]/8h[8:1],2h[8:1]/7h[8:1],
{4}2h[8:1]/6h[8:1],2h[8:1]/5h[8:1],2h[8:1]/4h[8:1],2h[8:1]/3h[8:1],
{8}2/1,1/8,7/8,6/7,5/6,4/5,3/4,2/3,
{16}1h[4:1]/2,,2,3,4,,3,4,5,,4,5,6,,5,,
{8}3b/7b,,2/1-7[8:1],3,4,5,6<3[4:1]/4,,
{8}3>6[4:1],,5,,3>1[8:1]*<5[8:1],2,,,
{16}7/8,,6,,B3,B7,B1,B5,B2/E3,,E7/B6,,Ch[8:1],,,,
{16}1/2,,3,,B6,B2,B8,B4,B7/E7,,E3/B3,,E5/B5,,,,
{8}7/8-2[8:1],6,5-7[8:1],4,3>6[4:1]/5,,6<3[4:1],,
{8}4,5,6-4[8:1],,6-1[8:1],1,6,3,
{16}1/2,,3/8,,B7,B3,B5,B1,E8/B8,,B4/E4,,Ch[8:1],,,,
{8}7/8,1/6,3/4,2/5,E8/B7,E4/B4,E6/B6,E2/B1,
{16}7/8,,,,2/5,,3,3,4,,1/2,,3/8,,7/4,,
{16}6/5,,3,3,4,,2,2,1,,3/8,,6/4,,3/5,,
{16}6/2,,7,,8/1,,3,3,4,,2/5,,1/6,,7/3,,
{16}2/5,,3,3,4,,6,6,5,,2,2,4,,1,,
{4}3h[8:1]/7h[8:1],2h[8:1]/7h[8:1],7h[8:1]/1h[8:1],7h[8:1]/8h[8:1],
{8}7/1,7,7/2,7,7/3,7,7/4,7,
{8}8/4,8/4,7/3,7/3,6/2,6/2,1/5,1/5,
{8}1>4[8:1],4-8[8:1],8<5[8:1],5,1bw5[8:1],,,,
{16}3/7h[4:1],,,,6,6,5,5,4>1[8:1],,8<5[8:1],,,,,,
{16}2h[4:1],,,,3,3,4,4,5<8[8:1],,1>4[8:1],,,,,,
{16}7h[4:1],,,,6,6,5,5,4>1[8:1],,8<5[8:1],,,,,,
{16}1,,2,,8/3,,7,,1<3[16:5]/6,,2,,3,,,,
{16}8,,,,7/1,,6,6,5,,2/8,,3,3,4,,
{16}7/8,,6,6,5,,2/1,,3,3,4,,7/8,,6,,
{16}1/5,,2,,3/4,,5,,6,6,5,,6/4,,7/3,,
{16}2/8,,1,1,1,1,1,1,1,1,1,1,1,,2/8,,
{16}3-8[8:1]/7-4[8:1],,,,3/7,,,,1-5[8:1],,5-1[8:1],,1,,,,
{16}8h[4:1],,7,6,5,,6,5,4,,5,4,3,,1/7,,
{16}2-5[8:1]/6-1[8:1],,,,2/6,,,,8-4[8:1],,4-8[8:1],,8,,,,
{16}1h[4:1],,2,3,4,,3,4,5,,4,5,6,,2/8,,
{8}7/3,3,6/4,6,3/5,3,2/6,6,
{8}1/5,1,2/6,6,3/7,3,4/8,8,
{8}1/5,1/5,8/4,8/4,3/7,3/7,2/6,2/6,
{16}1/5,,5/1,6/2,7/3,,6/2,7/3,8/4,,7/3,8/4,1/5,,8/4,,
{1}2q8[4:7]/6bq4[2:1],
{1}5-8[8:5],
{1},
E
