&title=Raven‘s Pride
&artist=みーに feat. はらもりよしな
&first=0.08000001
&lv_5=14.1
&des_5=snd
&inote_5=
(165){4},,,,{1}5pp1[8:7],
3qq5[8:5],
{16}3/8,,,2/7,,,1,8,{8}1,2-5[8:1]/7-4[8:1],3/6,2/7,
,C,{4}B8/B1,{8}3>8[16:1],3,7-4[16:1],7,
2-6[16:1],2,8,8,{24}2,3,4,8,7,6,1,2,3,4-8[8:1]/7-4[8:1],,,,,,{8}7/4,
,2qq3[8:1]/6qq7[8:1],2/6,,,8x,
{4}8x-4[8:11],2/C,1/C,7/C,
6/C,1,8,{8}6,{16}3,5,
{8}3v1[8:1],6,{4}6/3,{8}3/7<4[8:1],3,{24}3v6[8:1],2,1,8x,{48},,,,{16}8bx-4[8:1],
,,8bx,,,{8}6bx-1[16:1],{16},6bx,{48},,,,,,{24}3,4,5,6,7x,8x,
{8}1xv4[16:1],1x,7-3[16:1],7,2>5[16:1],2,{4}2/6,
{8}7/4,{16}5,6,4,7,3,8,{8}2>5[8:1],1,{4}2/1,
{16}3,4,2,5,1,6,8,7,{32}8b,1,2,3,4,5,6,7,8,1,2,3,4v7[8:1],5,6,7,
{8}8xv3[8:1],4x,{4}8x,2-5[8:1]/6-1[8:1],2/6,
3bx>7[4:1],3/7s3[4:1],{8}5h[16:1],5h[16:1],{4}5,
{8}2/7v5[8:1],4,7/4>1[8:1],3,{4}4/8w4[8:1],8b,
{8}3b>8[8:1],8s4[4:1],{4}3,6-1[8:1],{8}6/3,{24}3,4,5,
{4}6v3[8:1],6/8<5[8:1],{8}8/2-6[8:1],2,{4}2/6,
{8}4h[16:1]/7h[16:1],4h[16:1]/7h[16:1],{4}7h/4-8[8:1],4/7>1s5[8:3],2>5[8:1],
2,{16}2h[16:1]/6h[16:1],,,3h[16:1]/7h[16:1],,,{8}4h[16:1]/8h[16:1],{4}Cf/B4/B8,
{8}7-4[8:1],{16}3,3,{4}7,{8}2>5[8:1],6,{24}2/6x,7,8,1,,,{8}1x,
5x-2[8:1],,5x/8x-4[8:1],,8,{4}2x,
2qq4[8:3],7-4[8:1],7,{8}3h[16:1],3h[16:1],
3h[16:1],6h[16:1],6h[16:1],6h[16:1],{4}3bV15[4:1],5>2<8[8:3],
7,{8}7<4[8:1],7,{4}7b,{8}2h[16:1],2h[16:1],
{4}2bx-5[8:1],8-5[8:1],{8}8b/4,4,{24}4<7b[8:1],3,2,1,,,{4}4bx>1b[8:1],
4bx/8bV64b[8:1],8bx/2b-4b[16:1],{8}2bx,{16}8b,7b,
{8}6b/4b<7b[8:1],5bx,{16}3bx,,,2b,,,{8}8bh[8:1]/1bs5b[8:1],,,6bx,
6bx/4,5bx/4,5bx,{16}3b,6b,3b,7b,{8}2b,{16}1,8,
{8}1,1,1/7,1,1/6,1,{32}1s5[4:1],2,3,4,5,6,7,8,
{16}1x,,,7,,,{8}6,{16}4,5,{8}6/3,{4}7/3>7[4:1],
7<3[4:1],3>7[4:1],7p2[4:1],2<7[4:1],
7s3[4:1],5<8[8:1],5,{8}1-3-5[8:1],8h[16:1],
{4}1,{8}7x/6x,7/5,{24}7/4,6/3,5/2,1-5[8:1]/4-8[8:1],,,,,,{8}1/4,
,C,{4}B5f/B4f,{16}5,4,{8}3/6,{4}2/6<2[4:1],
2>6[4:1],6<2[4:1],2q7[4:1],7>2[4:1],
2s6[4:1],4>1[8:1],4,{32}7v4[8:1],6,5,4,3,2,1,8,
{4}7,{16}3x,4x,{8}2/5,{16}6,5,{8}7v5[8:1]/4v2[8:1],,4/7,
,C,{4}B8f/B1f,{8}6/3,6/3,2/7,2/7,
{24}1>4qq2[4:1]/8<5pp7[4:1],2/7,3/6,4/5,,,{4}1/8,{8},2x-7[8:1]/6x-3[8:1],,6/2,
,5/1,{4}5<8[8:1]/1>4[8:1],5/1,{8}1x/5x,{16}4/8,3/7,
{4}2/6<1[8:1],{8}6/4,4-8[8:1],,4/7x,7,{16}7/1,2/6,
5/3h[8:3],,,4,,,{8}7-3[8:1],,7/3,4,{24}4,3,2,
{4}1-5[8:1],1/8-4[8:1],8/7-5[16:1],{8}7/2,{16}2x-5[8:1],1x,
{8}8x-5[8:1],2,8,{16}2x>5[8:1],1x,{8}8x<5[8:1],2,{4}8,
{8}2,2,2,2,{24}2,3,4,8,7,6,1,2,3,4/6bx,{16},,,{64},{192},{32}8bx/2h[32:3],
7,{16}6,{32},,1bx/7h[32:3],2,{8}3,{32}8bx/2h[32:3],7,{16}6,,,{4}E1/E5/Cf,
{8}2h[8:3],,,8qq5[2:1],2,,,1v4[8:1],
,1,{4}7v5[8:1],{8}7/1>4[8:1],2,1/7pp5[8:3],7,
7/3,,,3>8[8:1],2,3/4v1[8:1],,4/7<4[8:1],
,7,{24}3,2,1,8-4[8:1],,,{8}7-5[16:1],8,{4}7,
1-3[8:1]/8-4[8:1],1/8,{16}2h[16:3],,,7h[16:3],,,{8}1-5[8:1],
,3/1,{4}3V57[8:1],{8}3/8,8,{4}1V75[8:1]/8-5[8:1],
1>4[8:1]/8q4[8:1],1/8,{16}7b,,,2/6,,,1/5,2/6,
{1}3qq4[8:3]/7qq8[8:3],
{2}5-8z4[4:3],Cf,
2qq4[4:3],Cf,
7qq1[4:3],Cf,
3qq5[4:3],Cf,
7V15-7[4:3],Cf,
2<4[4:3],Cf,
{8}6,6,5/4,{16}3,4,{8}3,{16}6,5,{8}6,4,
{32}4,3,2,1,8,7,6,5,{8}4h[8:1],{32}7b,8,1,2,3,4,5,6,{8}7h[8:1],,,{4}8z4[8:11],
3,2,6,
7,1,8,{8}3-8[8:1],4,
3/5-1[8:1],6,5/2>5[8:1],3,2/6<1[8:1],7,6,{24}3,4,5,
{16}6bx,,,8bx/1bx,,,{8}4bx/3bx,6x,6,{4}6/2-5[16:1],
{8}2x/7-3[16:1],8,1,1,{24}7,6,5,1,2,3,8,7,6,5-1[8:1]/2-5[8:1],,,,,,{8}2/5,
,7pp6[8:1]/3pp2[8:1],7/3,,,1x,
{4}1x-5[8:7],7/C,8/C,2/C,
1,{8}3,{16}6,4,{8}6v8[8:1],3,{4}3/6,
{8}3x-8[8:1]/7x-4[8:1],3/7,{4}7/3,{8}6/2>5[8:1],6,{24}6v3[8:1],7,8,1x,{48},,,,{16}1bx-5[8:1],
,,1bx,,,{8}3bx-8[16:1],{16},3bx,{48},,,,,,{24}6,5,4,3,2x,1x,
{8}8xv5[16:1],8x,2-6[16:1],2,7<4[16:1],7,{4}7/3,
{8}2/5,{16}4,3,5,2,6,1,{8}7<4[8:1],8,{4}7/8,
{16}6,5,7,4,8,3,1,2,{32}1b,8,7,6,5,4,3,2,1,8,7,6,5v2[8:1],4,3,2,
{8}1xv6[8:1],5x,{4}1x,7-4[8:1]/3-8[8:1],7/3,
{8}5/2,3h[16:1],{16}4-1[8:1],3,{8}5h[16:1],4,6,{16}8-4[8:1],1,{8}7,
8,6-2[8:1],5,6/3,4,{16}3,4,2,6,5,7,
{8}2,{16}8/1,2,3,4,{8}7/5,{16}6,4,{8}7h[16:1],{16}4,6,{24}3,2,1,
{32}6bx/8h[32:3],5x,{16}4x,{32},,6bx/8h[32:3],5x,{8}4x,{32}6bx/8h[32:3],5x,{16}4xh[8:1],,,8,1,2/5,6,{8}7,
2/8,{16}3,7,1,6,4,8,3,7,4,6,4,5,3,5,
{8}4-1[8:1],3,4/6v4[8:1],5,{16}3/6,2,1,8,7,5,7,5h[16:3],
{32}7x,8x,1x,2x,{8}3x,{16}7,2,{8}6h[16:1],{16}4,5,{8}3,5/3,3/5,
,7/8,{4}8/7,{16}8,7,1,6,2,5,3,4,
{4}Cfh[4:1],8b<2[4:1],{8}8/1,1w5[8:1],,1b,
,7,{4}2V84[4:1]/7-5[16:1],2/7,{8}7,{16}6,7,
3/8,,,3/6,,,4,5,{8}4,3-8[8:1]/6-1[8:1],2/7,3/6,
,C,{4}B5/B4,{8}2v4[8:1],2,6<1[8:1],6,
3-7[16:1],3,5,5,{24}2,3,4,8,7,6,1,2,3,4v1[8:1]/7v5[8:1],,,,,,{8}7/4,
,2qq2[8:1]/6qq6[8:1],{2}2/6,
{8}3/8,8,8/2,8,{16}1/8,2,3,4,{32}5,7,8,1,2,3,4,5,
{16}2b/6,,,2b/7,,,{8}1b/8h[8:3],,C,{4}B5f/B4f,
6bx<2[4:1],6/2z6[4:1],{8}4h[16:1],4h[16:1],{4}4,
{8}7/2v4[8:1],5,2/5<8[8:1],6,{4}5/1-4[8:1],{8}1b,{16}7,6,
{8}5h[16:1],4h[16:1]/5h[16:1],5h[16:1]/4>1[8:1],5h[16:1],4b,5,{24}7,6,5,3,2,1,
{32}7/8h[32:3],6,{16}5,{32},,8/7h[32:3],1,{8}2,{32}7/8h[32:3],6,{16}5,{32},,8/7h[32:3],1,{8}2,{4}7/8>3b[8:1],
8b<5b[8:1],8b/4bV28b[8:1],4b/6b-8b[16:1],{8}6b,{16}1bx-6b[8:1],2bx,
{8}3bx-7b[8:1],1b,{16}3b,,,5b,,,{8}5bx-8b[8:1],1b,{24}1x,2x,3x,
{8}4x,1,8/4,8,{32}7/3,6,5,4,3,2,1,8,{16}4/7,5,6,7,
{8}8w4[4:3],,,,,,,Cf/B3/B4/B5/B6/B2,
E
