&title=LUCKY CAT
&artist=ちょこふぁん
&first=0
&lv_5=13
&des_5=スリラチャ
&inote_5=(167){1},
{8}3hx[8:15],B6,,B7,,B8,,B1,
,{4}B2,B3,B4,{8}B5,
6hx[8:15],B3,,B2,,B1,,B8,
,{4}B7,B6,B5,{8}B4,
2hx[8:15],B7,,B6,,B5,,B4,
,{4}B3,B2,B1,{8}B8,
7hx[8:7],B2,,B3,,B4,,B5,
7hbx[8:7],B6,,B7,,B8,,B1,
{16}4x,,5x,,6x/3x,,1x,8x,1x,,5x/4x,,A8/A1/E1f/B8/B1/B7/B2,,,,
3bx,,3,,4/2,,3,,6x,,6,4,,4,8,,
2x-5>3[16:3],,2,,5,,6,,7x,,7,1,,1,5,,
4x/3x,,4/3,,5/2,,5/2,,1x,,1,7,,7,3,,
6x/4x,,7,5,,6h[8:1],,4hx[16:3],,,7,5,6,2,4,3,
6x,,6,,5/7,,6,,3x,,3,5,,5,1,,
7x-4<6[16:3],,7,,4,,3,,2x,,2,8,,8,4,,
5x/6x,,5/6,,4/7,,4/7,,8x,,8,2,,2,6,,
3x/5x,,2,4,,3h[8:1],,5hx[16:3],,,2,4,3,7,5,6,
{8}1x-5[8:1],,8/1,,7,6,5hx[16:3]/4hx[16:3],,
{16}3,,3,,E8/B8/B1/E2/E1f,,,E6/B5/B4/E4/E5f,,,,,,,3-8[8:1]b,4,
3,,,,7bx,,6-1[8:1],5,6,,,,2bx,,3,,
{4}8h[8:1]/4h[8:1],7h[8:1]/3h[8:1],6h[8:1]/2h[8:1],5h[8:1]/1h[8:1],
{8}8x-4[8:1],,1/8,,2,3,4hx[16:3]/5hx[16:3],,
{16}6,,6,,E2/B1/B8/E8/E1f,,,E4/B4/B5/E6/E5f,,,,,,,6<1[8:1],5,
6,,,,2bx,,3>8[8:1]b,4,3,,,,7bx,,6,,
{4}5/4b,6/3b,7b/2,8/1b,
{16}2bx-5[8:1]b,,,1,2,,8,,2-5[8:1]b,,,1,2,,8,,
7-4[8:1],,,8,7,,1,,7-4[8:1],,,8,7,,1,,
2-5[8:1]b,,,1,2,,8,,7-4[8:1],,,8,7,,1,,
2h[16:3],,,3h[16:3],,,4,,5pp7[8:1]/4qq2[8:1]b,,,,,,,,
6-1[8:1],,,5,6,,4,,6-1[8:1],,,5,6,,4,,
3-8[8:1]b,,,4,3,,5,,3-8[8:1]b,,,4,3,,5,,
6h[16:3],,,1,,,7/8,,6-4[8:1],,1-5[8:1]b,,6,,1b,,
,,7/3b,,8b/2,,7/3b,,8b/2,,,,1-5[8:1],5,1,5,
{8}1bx<6[8:1]*>4[8:1],,1bx,,5/2,3,7/4,6,
{4}5<8[8:1]/1>4[8:1],5p1[8:1]/1p5[8:1],{32}5/1,Cf,,,,,,,,,,,,,,,
{8}6b<1[8:1]/1b>4[8:1],,6b/1b-5[8:1],,3,3,7/2,7/2,
{4}8>3[8:1]/1<6[8:1],8s4[4:1]b/1z5[4:1]b,8/1,,
{8}7bqq5[8:1]/8bpp2[8:1],,7b/8b,,6x,1,7/8,6,
{4}5/1V35[8:1],6>2[8:1],1V35[8:1],6>2[8:1],
{8}7,7,8/1,8/1,2,2,4/3,4/3,
{16}2h[8:1],,6h[8:1],,1h[8:1],,5h[8:1],,3,4,2,,8-4[8:1],1,8,1,
{8}8bx-5[8:1]*-3[8:1],,8bx,,4/7,6,2/5,3,
{4}4>1[8:1]/8<5[8:1],4q8[8:1]/8q4[8:1],{32}4/8,Cf,,,,,,,,,,,,,,,
{384}5bx-8[8:1],4bx-1[8:1]b,,,{32},{12},{8},5bx/4bx,,6,7,8<6[8:1]/1p5[8:1],2,
{4}8q4[8:1]/1>3[8:1],8/1,E8/B7/B6/E6/B5/E5f/B4/E2/B2/B3/E4,,
{8}2bpp4[8:1]/1bqq7[8:1],,2b/1b,,3x,8,2/1,3,
{4}4/8V64[8:1],3<7[8:1],8V64[8:1],3<7[8:1],
{8}2,2,8/1,8/1,7,7,6/5,6/5,
{16}4h[8:1],,6h[8:1],,1,,7,6,5,3,2,1,Cf,,,,
{8}8xqq6[8:1]b/4h[4:1],,8x,,2-4[8:1],2,7-5[8:1],7,
{4}1x<7[8:1]*>3[8:1],1xw5[8:1],1b,,
{8}7x-4[8:1]/3x-8[8:1],,7x/3x,,5/1,5/1,6/2,6/2,
{4}7x-4[8:1]*<4[8:1],7x-2[8:1]*>2[8:1],7b,,
{8}4x<7[8:1]/3x>8[8:1],,4x/3x,,1-4[8:1],6-1[8:1],1,6,
{4}5x-3[8:1]*-2[8:1],5x-7[8:1]*-8[8:1],5xw1[8:1],5x,
{8}7/4,6,5/2,3,8/4,6,5/1,3,
{16}7h[8:1],,5h[8:1],,4h[8:1],,2h[8:1],,8,1,8,,3,4,3,4,
{8}1x-5[8:1]b*-4[8:1]b,,1x,,7v2[8:1],7,3<5[8:1],3,
{4}8x<6[8:1]*-5[8:1],8xw4[8:1],8b,,
{8}2x>5[8:1]/6x<1[8:1],,2x/6x,,4/8,4/8,3/7,3/7,
{4}2xqq8[8:1]*pp4[8:1],2xw6[8:1],2b,,
{8}5x>2[8:1]/6xp1[8:1],,5x/6x,,8-3[8:1],7-5[8:1],8,7,
{4}4x>1[8:1],5/4x<7[8:1],3/4xw8[8:1],4x,
{8}5/3,7/1,5/3,7/1,4/6,2/8,4/6,2/8,
{16}5x,,4x,,3x/6x,,8x,1x,8x,,4x/5x,,A8/A1/E1f/B8/B1/B7/B2,,,,
6bx/4bx,,1,,5/3,,8,,6x/4x,,2>5[8:1],1,,1,2,,
8x,,8,,7/5,,7/5,,6hx[8:1]/4hx[8:1],,,7h[8:1]/1h[8:1],,,6/4,,
3x,,2,,8/1,,7,,6x/5x,,3p7[8:1],4,,4,3,,
5hx[16:3],,8,8,,6,,7x/1x,,,4,3,2,8,7,6,
3x/5x,,8,,4/6,,1,,3x/5x,,7<4[8:1],8,,8,7,,
1x,,1,,2/4,,2/4,,3hx[8:1]/5hx[8:1],,,2h[8:1]/8h[8:1],,,3/5,,
6x,,7,,1/8,,2,,3x/4x,,6q2[8:1],5,,5,6,,
4hx[16:3],,1,1,,3,,2x/8x,,,5,6,7,1,2,3,
5bx-8[8:1]b/4bx-1[8:1]b,,,,5bx/4bx,,,,7bx/6bx,,,2bx/3bx,,,8bx/1bx,,
8bx/1bx,,,7bx/2bx,,,6bx/3bx,,,,,,{32}1b,8/2,7/3,6/4,5w1[1:2]b,
E
