&title=Aether Crest: Celestial
&artist=void (Mournfinale) × 水野健治
&first=0
&des=切~Wor1d's 3nD~
&lv_6=15+
&inote_6=(180){4},,,,{1}1w5[8:5],
{8}1,2,3,7,6,5,2,3,
4,8h[8:7],7,6,5,4,3,2,
1,7,6,5,3,2,7,8,
1h[8:3],2,3,4,5h[8:3],6,7,8,
4/2,3,4,5/6,7,8,1/5,4,
7h[4:1],8,2h[4:1],1,5h[8:3],4,3,2,
5/7,6,5,4/3,2,1,8/4,5,
2h[4:1],1,7h[4:1],8,4h[8:3],5,6,7,
{4}8V64q8[4:3],3,2,8pp5<2[1:1],
,,,,4V28q4[4:3],
7,6,4pp1>6[1:1],
,,,,7p6<2[4:3],
4,5,4,
3p2>6[4:3],8,1,8,
{2}7pp4[4:3],{4}5,4,
{2}3pp8b[4:3],{4}1,8,
{2}7h[4:3],5h[4:1],
{4}2h[4:3],3,{2}4h[2:3],
{1}8-2-7-3-6[4:3],
{8},,1,1,8/2,7/3,{4}6/4,
B8/B1/B2/B3/B7,{8}5h[8:1],4,6xh[16:1]/1pp5[2:1],6xh[16:1],6xh[16:1],6xh[16:1],
6xh[16:1],6xh[16:1],6xh[16:1],6xh[16:1],{16}4,3,2,1,4,5,6,7,
{4}8,{8}4h[8:1],5,3xh[16:1]/8qq4[2:1],3xh[16:1],3xh[16:1],3xh[16:1],
3xh[16:1],3xh[16:1],3xh[16:1],3xh[16:1],{16}5,6,7,8,5,4,3,2,
{4}1,8,{8}7h[16:1]/3<5-2-6-1[2:1],7h[16:1],7h[16:1],7h[16:1],
7h[16:1],7h[16:1],7h[16:1],7h[16:1],{16}8,1,8,1,7,8,7,8,
{4}6,{8}1,8,2h[16:1]/6>4-7-3-8[2:1],2h[16:1],2h[16:1],2h[16:1],
2h[16:1],2h[16:1],2h[16:1],2h[16:1],{16}1,8,1,8,2,1,2,1,
{4}3<6[4:1],6<1[4:1],{2}1q3[2:1],
5<8[4:1],1>4[4:1],
{4}6>3[4:1],3>8[4:1],{2}8p6[2:1],
4>1[4:1],8<5[4:1],
{8}E3/B3/B4/E5/A2,,,7h[4:1]/8h[8:1],,,{4}6/1,
{8}E7/B6/B5/E5/A7/A4,,,1h[8:1]/2h[8:1],{32},,,,2,1,{16}2,8,3,{8}7,
E3/B2/B1/E1/A3/A8,,,6h[4:1]/5h[8:1],,,{4}7/4,
{1}8z4[2:1]/1s5[2:1],
{8}1>4[8:1],8,{4}7,{8}6<1[8:1],5,,3q5>3[8:7],
,7,{4}8h,{8}1,1,{4}8h,
{24}7,6,7,6,7,6,{4}8-4V61[2:1],{8}3,2,,2pp5[8:7],
,,6,7,8,8,{4}7,
{8}8<5[8:1],1,{4}2,{8}3>8[8:1],4,,6p4<6[8:7],
,2,{4}1h,{8}8,8,{4}1h,
{24}2,3,2,3,2,3,{4}1-5V38[2:1],{8}6,7,,7qq4[8:7],
,,3,2,1,1,{4}2,
{8}8,{16}2-5[8:1],1,,1,{8}2,{4}7v4[8:1],{16}3,2,{8}1s5-3-7-1[8:5],
,,,,,,6,5,
{24}3,4,3,4,3,4,{8}2,{24}6,7,8,{8}1,{16}2,2,3,3,{8}4,
{16}8,7,1,8,1,7,8,7,{12}1,2,3,4/8,5,6,
{8}1,{16}7-4[8:1],8,,8,{8}7,{4}2v5[8:1],{16}6,7,{8}8z4-6-2-8[8:5],
,,,,{4}2,3,
{24}1,2,3,8,7,6,{16}2,1,8,7,{32}1,2,3,4,{8}5/7,{32}8,7,6,5,{8}4/2,
{32}2,1,2,1,{8}2h[8:3],{4}8,{2}6,
{4}8/1h[4:3],{8},,,,2,3h[4:1],
{24},,,A7,E8,E1,{8}A1,{24}A4,E5,B5,{8}B6,2,3,4,
{4}8h[4:1],{24}A2,E3,E4,A4,,,A6,E6,E5,A4,,,{8}1,{24}D3,E3,C,
{4}E7,{24}A7,E8,B8,B1,,,{8}5/4,{16}1,8,{24}2,7,2,{96}7,,,6,,,{32}5,4,
{8}2,2,1/2,1/2,2/D1,2/D8,2/D7,{24}2/D6,3,4,
{8}5/7,7/1,7/2,{24}7/3,6,5,{8}4/2,{24}7/3,6,5,{4}4/2,
{16}2,1,2,1,3,5,{32}4,6,{16}4,8,1,{24}6,5,6,{32}4,3,2,1,6,7,8,1,
{16}3,3,1,2,6,6,8,7,4,4,4,4,5,5,5,5,
{8}1bxh[16:23],A2/E3/A3,{16},E3/A3/A2,,,,,{8}E8/B8/E1,{16},E8/B8/E1,,,,,{8}E6/A5/E5,
{16},E6/A5/E5,{32},,7,8,{16}7,6,5,4,{4}3/1-5b[8:1],
{32}1b/2b,B1f,Cf,B5f,{8}A5f,{16}3b,4b,,2b/5b,,7b/1b,,5b/6bh[16:3],,8bz4b[16:1],{8}8b,
{4}8b/1b,{16}2b,8b,,7b/3b,{8}4bv5b[8:1],8bv1b[8:1],4b>5b[4:1],8b,
{16},,,,1b,2b,,8b/3b,,8b/3b,,4b,5bs1b[8:1]*z1b[8:1],3b,{8}3b,
{16},,,,8b,7b,,6b/1b,B7/B6,B4/B3,,A1,E2,E3,{8}A3,
{32}8bx,7bx/1bx,6bx/2bx,5bx/3bx,{8}4bx,{16}8bh[16:1],1bh[16:1],7bh[16:1],2bh[16:1],{8}8bh[16:1],8bh[16:1],{12}1bh[24:1],1bh[24:1],1bh[24:1],
{4}Cf,{16}3bh[16:1],4bh[16:1],3bh[16:1],4bh[16:1],{8}2bv7b[8:1],6bv3b[8:1],2bqq5b[4:1],6b,
{16},,,,7bh[16:1],8bh[16:1],6bh[16:1],1bh[16:1],{8}5bh[16:1],5bh[16:1],{12}2bh[12:1],3bh[12:1],4bh[12:1],
{16}E2,B1,{8}B8,{16}6bh[16:1],5bh[16:1],6bh[16:1],5bh[16:1],{8}7b-2b[8:1],2b-8b[8:1],{4}7b,
{32}5,4,3,2,{24}1,8,7,{16}6/2,5,4,3,{32}2/8,1,2,3,4,5,6,7,{24}8/4,1,2,3,4,5,
6/1x,7/2x,8/3x,1/4x,2,3,4/8x,5/1x,6/2x,7/3x,8,1,{2}2p5[8:1]*q7[8:1],
1>5qq8[4:3],E7/B7,
5<1qq4[4:3],E3/B3,
{32}1,2,3,4,8,7,6,5,{24}2,3,4,7,6,5,{32}1,2,3,4,{16}5/8,8,{32}7,6,5,4,{16}3/8,8,
{24}2,1,8,7,6,5,4/7,3,2,1,8,7,{2}3/6<4[8:1],
8<4pp1[4:3],E3/B2,
4>8pp5[4:3],E7/B6,
6h[4:3],8h[4:3],
1h[4:3],3h[4:1],
3h[4:3],1h[4:3],
8h[4:3],6h[4:1],
{1}3qq4[4:3],
6-8-4<6[4:3],
1>3-8-4<6[4:3],
8<5-7-4[4:3],
{2}B2/B3/E3,B8/B1/E1,
B7/E7/B6,{8}B5/B4/E5,{64}1x,2x,3x,4x,5x,6x,7x,8x,{4}Cf,
{16}2/5,3,4,2/5,,,8/6,7,{8}6/8,{32}5,4,{16}5,6/3,2,7,1,
{8}8<5[8:1],{24}5-1[8:1],4,3,{8}2,{24}1,2,3,{8}4w8[8:1],{32}3,5,3,5,,,,,,,,,{16}1>4[16:1],
2,8,1,,,6-2[16:1],5,7,6,{32},,,,1,8,{16}7,5,6,
{8}1bxh[12:1],{24}4,3,4,{8}8bxh[12:1],{24}6,5,6,{32}1b,2,3,4,{16}5,{32}8b,1,2,3,{16}4,{32}7b,8,1,2,
6,5,{16}6,4,7,{32}3,4,{16}3,5,2,{24}7,8,7,2,1,2,{32}8,1,8,1,{16}8,1,
{32}7,6,5,4,8,7,6,5,2,3,4,5,1,2,3,4,{16}5/6,6,8,3/4,3,1,{8}7/2,
{32}7,8,{16}7,5,6,{32}2,1,{16}2,4,3,{24}8,7,6,1,2,3,{32}7,6,5,4,2,3,4,5,
{24}7,1,7,1,{48},{16}6,{24}2,8,2,8,{48},{16}3,{24}6,7,8,1,2,3,4/5,6,7,8,1,2,
{16}3x/4x,5,5,5,2x/3x,6,6,6,8/2,7/1,8,1,5/6,3/4,{32}5,6,7,8,
{8}1>4[8:1],{32}7,8,{16}7,{8}1,{32}8,7,6,5,{8}4>1[8:1]*p8[8:1],{32}6,5,{16}6,{4}4,
{24}8b/5b,6/1,7/2,8/3,1/4,2/5,{32}6,7,8,1,2,3,4,5,{16}7,7,8,8,1,1,2,2,
{12}6,{24}5,3,{12}4,1/7,{24}2,7,{12}3,{16}8/5,7/4,6/3,5,1/4,2/5,3/6,4,
7,7,8,6,2,2,1,3,6,5,6/1,5,3,4,3/8,4,
6,5,7,4,6/1x,3,5,2,{24}8,7,6,1,8,7,2,1,8,3,2,1,
{16}8/7,5,5,5,6/7,4,4,4,5/6,3,3,3,5/4,2,2,2,
{24}8b,8b,8b,8b,8b,8b,1,2,3,4/1,5,6,{32}7/3b,6/2b,5/1b,4/8b,3/7b,2/6b,1/5b,8/4b,{24}7/3b,2bx,1bx,8bx,7bx/2,6bx,
{2}5bx/4h[2:1],{8}6h[8:7],,,3h[2:1],
,,,,{2}7h[4:1]/2h[4:1],
1bx/8h[2:1],{8}2h[8:7],,,7h[2:1],
,,,,{2}3h[4:1]/6h[4:1],
{16}2/5x,4,3,5,4/7x,6,5,7,5/6,7/8,4/5,6/7,3/4,5/6,{32}2,3,4,5,
{16}1,7,5,6,3,4,{32}2,1,{16}8,5,6,{32}8,1,{16}2,{4}3/4,
{24}7,5,7,5,7,5,2,4,2,4,2,4,7,8,6,2,1,3,6,5,6,3,4,3,
{32}7,6,5,4,3/B7/B8,2,1,8,7/2,3,4,5,6/B2/B1,7,8,1,2/6,7,8,1,2/B6/B5,3,4,5,6/3,2,1,8,7/B3/B4,6,5,4,
{4}3<5qq8[4:3],7>1qq4b[4:3],{16},,,,,,,,,,,,6,
5,4,3,{24}7,6,5,4,3,2,{32}8,7,6,5,4,3,2,1,
{24}8x,7x,6x,5x,4x,3x,2x/1x,3x,4x,5x,6x,7x,8x/1x,2x,3x,4x,5x,6x,7x/8x,6x,5x,4x,3x,2x,
{2}1x,{24}6xpp1<4b[4:13],5x,4x,3xqq8>5[8:25],
E
