&title=RONDØ
&artist=Ashrount
&first=-0.737
&des=The Advanced Wonton
&lv_6=14+
&des_6=The Advanced Wonton
&inote_6=
(157){4},,,,,,B3h[2:1]/E4fh[2:1],
{16}A6,A7,A8,A1,
{1}2x<6[2:3],
{2}2h[4:1],6>2b[2:3],
{1}8h[2:1],
{2}2<5[4:3],{16}B4,B3,B2,B1,B8,B7,B6,B5,
{32},,,,,,,,1b,2,3,4,,,1b,2,3,4,,,1b,2,3,4,5/7-3[8:1],8,1,2,3,4,{16}5,
{32},,,,,,,,8b,7,6,5,,,8b,7,6,5,,,8b,7,6,5,4/2-6[8:1],1,8,7,6,5,{16}4,
{32},,,,,,,,2x,3,4,5,1x,2,3,4,8x,1,2,3,7x,8,1,2,6x,7,8,1,5x,6,7,8,
{1}1xh[1:1],
{4}5b,{32}1/7h[8:1],2,3,4,,,1/7h[8:1],2,3,4,,,8/2h[8:1],7,6,5,,,8/2h[8:1],7,6,5,,,1/7h[8:1],
2,3,4,,,8/2h[8:1],7,6,5,,,{8}7/1,7/1,8,{12}8w4[16:1],8,8,
,,,,,,,,,{4}2h[4:1],
{8}8-3[16:1],7-5[16:1],8,7,4v6[16:3],{16}6,6>3[8:1],,8,{8}8,
7-4[16:1],8-2[16:1],7,8,{32}6,7,{16}8h[16:3],{32},,3,2,{8}1-5[8:1],8-3[16:1],
1-6[16:1],8-4[8:1],1x,8x,2h[8:1],{16}5,5h[8:1],,8,{8}8h[8:1],
{16}6,6,4,4,2,2,8,8,7b/1b-5[16:1],,,7b-3[16:1],,,{8}3b,
1-6[16:1],2-4[16:1],1,2,5v3[16:3],{16}3,3<6[8:1],,1,{8}1,
2-5[16:1],1-7[16:1],2,1,{32}3,2,{16}1h[16:3],{32},,6,7,{8}8-4[8:1],1-6[16:1],
8-3[16:1],1-5[8:1],8x,1x,7h[8:1],{16}4,4h[8:1],,1,{8}1h[8:1],
{16}3b-7[16:1],,,4b-8[16:1],,,{8}5b-1[16:1],{16},6b-2[16:1],,,{4}7b-3[16:1],
{8}8xh[4:7],{16},,,,B2,B3,{8}B4,{16},,,,B7,B6,
{8}B5,{16},,,,B2,B3,{4}B4,2-5[16:1],
{8}8-4[16:1],1-6[16:1],8x,1x,5h[8:1],{16}8,6,1,7,2,8,
3,3,1,1,7,7,5,5,4b/6b-2[16:1],,,4b-8[16:1],,,{8}8b,
{32}7,6,{16}5,{8}1-5[16:1],7/8,1,6h[8:1],{16}3,4h[16:3]/2h[16:5],,,,,{8}8,
{16}7/1,7/1,{12}2bqq8q4[8:3]/6bpp8p4[8:3],2b/6b,2b/6b,{4},,{16}5,
5,4,4,3,3,2,2,1,1,8,8,7,7,6,6,
5b-1[16:1],,,4b-8[16:1],,,{8}3b-7[16:1],{16},2b-6[16:1],,,{4}1b-5[16:1],
{2}3h[8:15],5x<5-1[8:9],
{6},,,,,,{3}8bh[3:1],
{12}3,4,{8}3h[8:1],{24}6,,6h[6:1],,,,1,1,,{6}8h[6:1],
{24}1h[8:1],,,6,,5,,4,{6}4,{24}6h[24:5],,,3,,{8}3,
{32}8h[4:1]/1h[4:1],,,,,,,,,2/7,6/3,4,5,6,7,8,1,2,7/3,6/4,{8}5,{32}8/2,7,6,5,{8}4h[8:1],
8h[16:1],8h[16:1],{32}1/7,2,3,4,{16}5h[8:1],8,1,2,3,4,{32}1/5,2/6,3/7,4/8,{8}1/5,
{2}7xh[8:15],1x>1-5[8:9],
{4},,,,5b,
{32}6,5,6,5,{8}6,7<4[16:1],8,7/1,{32}1,2,3,4,
{4}5,{24}2,1,2,1,2,1,{8}2>5[16:1],8,{12}2/8,7,6,
{4}5,{8}7/1,{16}8,8,{8}8,7/1,{32}2,3,4,5,6,7,8,1,
{24}2h[1:1]/B8,B7,B6,B5,B4,B3,B2,B1,B8,B7,B6,B5,B4,B3,B2,B1,B8,B7,B6,B5,B4,B3,B2,B1,
{8}Cf/B8,{16},,,,7x,6x,{2}5x<2[8:9],
E2,E4,
{8}4xh[8:11],{16},,,,8x,7x,{8}6b,{16},,,,8x,1x,
{8}2b,{16},,,,1,8,7,6,5,4,3,2,1,8,
7/2-5[16:1],,,1x,{8}2,8,{16}7-4[16:1],,,8x,{8}7,1,
2b,{32}8,7,6,5,{8}4,{32}2,3,4,5,{8}6,{32}7,6,5,4,{8}3,{16}1x,8x,
2,7,3,6,3,6,2,7,{32}1,8,1,8,1,8,1,8,1,8,1,8,1,8,1,8,
{1}1p8[2:1],
{8}6/1,{16}8,7<4[16:1],,6/1-5[16:1],,7,,1,,8,7,6,5,4,
{8}3/1,{16}2,2-5[16:1],,8-4[16:1],,2-6[16:1],,8-5[16:1],,2,,8,,,{8}3,
{16}2,2>5[16:1],,3/8-4[16:1],,2,,8,,1,2,3,4,5,
{8}6/8,{16}7,7-4[16:1],,1-5[16:1],,7b-3[16:1],,1b,,7b,,,,,{8}1,
{16}2,2-5[16:1],,8-5[16:1],,2,,8,,1,2,3,4,5,
{8}6/8,{16}7,7-4[16:1],,5-2[16:1],,7-3[16:1],,5-1[16:1],,7,,5,,,{1}E8h[4:3]/B7h[4:3],
{32}2,3,4,5,6,7,8,1,2/6,5,4,3,2,1,8,7,2/6,3,4,5,6,7,8,1,6/2,5,4,3,2,1,8,7,
{24}4,5,4,5,4,5,3,6,3,6,3,6,2,7,2,7,2,7,1,8,1,8,1,8,
{1}1b,
,1-3-6-8-4-1-5-8[2:7],
{2},C,
{1}6-2[2:3],
{8},,,,,,,,3h[1:1],
B8,B7,B6,,B7,B6,B5,
{2}4xh[2:1],5h[2:1],
{8}6bh[2:1],{16},,,,3,2,1,8,7,6,5/A1,4/A8,3/A7,2/A6,
{4}1h[4:3]/A5,{16},,,,,,,,A6,D6,A5,D5,
{4}A4/Cf,{8}1,1,7,7,4,4,
{16}5,3,5,3,6,2,6,2,{32}7x,1x,{16}7x,2,6,1,7,3,5,
{24}2,4,2,4,2,4,3,5,3,5,3,5,4,6,4,6,4,6,5,7,5,7,5,7,
4,6,4,5,3,5,4,6,4,5,3,5,{4}4w8[8:1],Cf,
{8}1x/8bx-4[16:1],7,8b/2,{16}3,3,{8}6b-1[16:1],7,6/5b-2[16:1],4,
5/6b,7<4[8:1],8b/1b,{16}1,2,{8}3b-8[16:1],4x-7[16:1],3b,4,
{32}1b,2,3,4h[16:3],,,8b,7,6,5,,,{16}3b,3,{32}8b,7,6,5h[16:3],,,1b,2,3,4,,,{16}6b,6,
{8}8b-3[16:1],1,8/6b-1[16:1],5,6/4b-7[16:1],3,4/2b,3,
{32}7/4,6/3,5/2,4/1,,,2/5,3/6,4-1b[16:1]/7v4b[8:1],5/8,,,{8}1x,{4}4b/7b,{16}3,4,3,4,
{32}2/5,3/6,4/7,5/8,,,7/4,6/3,5-8b[16:1]/2v5b[8:1],4/1,,,{8}8x,{4}5b/2b,{16}6,5,6,5,
{32}7b/4b,8,1,2,,,7b,8,1,2,,,{16}5h[32:1],5h[32:1],{32}2b,1,8,7,,,2b,1,8,7,,,{16}4h[32:1],4h[32:1],
5b,6,7,8,{32}1b,2,3,4,5,6,7,8,{2}1h[4:1]/5bh[4:1],
{8}8/1b-5[16:1],2/7,1b/8,{16}6,6,{8}3b-7[16:1],2,3/4b-8[16:1],5,
4/3b,2>5[8:1],1b/8b,{16}8,7,{8}6b<1[16:1],5x>2[16:1],6b,5,
{32}8b,7,6,5h[32:3],,,1b,2/6,3/7,4/8,,,{8}8x/4x,{32}4b,3,2,1h[32:3],,,5b,6/2,7/3,8/4,,,{8}8x/4x,
1b-6[16:1],8,1/3b-8[16:1],4,3/5b-2[16:1],6,5/7b,6,
{32}1>5b[8:1],2>6b[8:1],3<7b[8:1],4<8b[8:1],,,A1,A2,A3,A4,,,1,2,3,4,5,6,7,8,{16}1x,1x,1x,1x,1x,1x,
{32}8<4b[8:1],7<3b[8:1],6>2b[8:1],5>1b[8:1],,,A8,A7,A6,A5,,,8,7,6,5,4,3,2,1,{16}8x,8x,8x,8x,8x,8x,
{32}1b,2,3,4,,,2b,3,4,5,,,{16}1h[32:1],1h[32:1],{32}7b,6,5,4,,,8b,7,6,5,,,{16}8h[32:1],8h[32:1],
{24}2,1,2,1,2,1,3,8,4,7,5,6,5w1[8:1],6,5,6,5,6,{4}Cf,
{16}2bx/8bx,8x/2x,,6/5,,4/3,,7/1,{4}1bh[8:1]/7bh[8:1],{16}6b/8b,8/6,,2/3,
,4/5,,8/2,{4}8bh[8:1]/2bh[8:1],{16}4/3,4/3,,5/6,{8}5/6,{16}7/8,8/7,
,1/2,{8}1/2,{16}5b,{32}3,4x,{16}3,6b,{32}3,4x,{16}3,7b,{32}3,4x,{16}3,8b,{32}3,4x,{16}3,
{8}7bh[16:1]/6bh[16:1],2bh[16:1]/1bh[16:1],{64},,,,,,,,,,,,,,,,1b/8b,7b/2b,6b/3b,5b-8[64:205]/4bz8[64:189],
E
