&title=Alter//Strife
&artist=Sad Keyboard Guy; Sleepless; Myntian; Vally.exe
&first=0.02
&des_1=末路
&des_2=末路
&des_3=末路
&des_4=末路
&des_5=末路
&lv_5=14+
&des_6=末路
&des_7=末路
&des=末路
&inote_5=(180){8},,,,,,,,,,,,,,,,,,,,,,,,,,,,,,,,,,,,,,,,,,,,,,,,,,,,,,,,,,,,,,,{16},2x>6[8:4]/8h[16:7],{8},,,,,,,,6>2[8:4]/7h[8:3],,,,,,,,2-4-6[8:4]/6h[8:3],,,,,,8z4[8:6],,,,,,,,,,3<7[8:4]/2h[8:3],,,,,,1pp6[8:6],,,,,,,,,,8<4[8:4]/5h[8:3],,,,,,3p8[8:6],,,,,,,,,,1h[8:3]/7-5-3[8:4],,,,,,,,2h[8:3]/3<7[8:4],,,,,,,,3h[8:3]/7-5-3[8:4],,,,,,1-5-2[8:6],,,,,,,,
,,3h[8:3]/7<4qq8[8:12],,,,,,1h[8:8],,,,,,,,,,2pp6>1[8:12]/6h[8:3],,,,,,8h[8:8],,,,,,,,,,7h[8:14]/3-6[8:2],,,,,,5-7>3[8:6],,,,,,,,,,3h[16:27]/7-5[8:2],,,,,{16},4v1-3-7[8:8],{8},,,,,,,,,{16},1-3-5[16:9],{8},,,,,,8-6-3[8:6],,,,,,,,2,,1>5[8:4]/5<1[8:4],,,,,,,,1h[8:2]/5h[8:2],,,,4/8,,3/7,,
A6h[8:6]/B6h[8:6]/B2h[8:3]/A2h[8:3]/B5h[8:6]/B1h[8:3],,,,,,,,1h[8:2],,5,4/7h[8:2],,8,2/6,,E4h[8:3]/A3h[8:3]/B4h[8:3]/D8h[8:6]/E7h[8:6]/A7h[8:6],,,,,,,,2,2,4,3,6,6,5,7,E1h[8:3]/A8h[8:3]/E8h[8:3]/E3h[8:6]/E4h[8:6]/A3h[8:6],,,,,,,,7h[8:2],,4,5/2h[8:2],,1,3/8,7,A3h[8:2]/E4h[8:2],,B5,A6h[8:2]/E7h[8:2],,B4,A2h[8:2]/E3h[8:2],,C,A8h[8:3]/E8h[8:3],,,1-5[8:1],,C,,7bh[8:12],,4,B4,,3,B3,,2,B2,,1,B1,,7/8,,6/2h[8:12],,5,B5,,6,B6,,7,B7,,8,B8,,1/2,,3h[8:12]/7,,1,B1,,6,B6,,8,B8,,4,B4,,1/7,,6h[8:12]/2,,1,B1,,4,B4,,8,B8,,5,B5,,2/8,,
{4}1-4-8-3[8:8],8,7,6,5,4,2/6,1/7,8-4-6-1[8:8],1,2,3,4,5,2/8,3/7,{8}4/B6,4,4,B3/5,5,5,2/E6,2,2,7/B3,7,7,B6/1,1,8/C,,2/6,2/6,2/6,3/5,3/5,3/5,4,4,{16}7h[8:8]/B3,B2,E2,B1,B8,E8,B7,B6,E6,E5,B4,B3,E3,B2,B1,E1,{1}8bx-6-4-2-5[8:4],{16}
4b-7[8:1]/6bh[16:3],,,2,4x,,1h[8:1],,8,8,5,,3x/6x,,,,4/7h[16:3],,,3,6xh[8:1],,2h[8:1],,5,,3,4,2x,5,3x,,4-7[8:1]/6h[16:3],,,3,4x,,1h[8:1],,8,8,5,,3x/6x,,,,4/7,,6,6,5x,,3,3,4,,6,5,7x,4x,6x,,5-2[8:1]/3h[16:3],,,7,5x,,8h[8:1],,1,1,4,,6x/3x,,,,5/2h[16:3],,,6,3xh[8:1],,7h[8:1],,4,,7,4,6x,5,7x,,6-3[8:1]/4h[16:3],,,7,6x,,8h[8:1],,1,1,4,,7x/2x,,,,5/2,,3,3,4x,,6,6,5,,2,4,3x,5x,2x,6,
1bpp4[8:6],,,8,8x,,7,,7,,7,,6x,,,,5<8[8:2],,,3,3x,,2,,1>4[8:2],,,7,7x,,6x,,5<4[8:6],,,,E3,,E2,,E1,,E8,,E7,,,,5p4[8:4],,,,D7,,D8,,D1,,D2,,D3,,,,1,4,3,5,4x,6,5,7,1,4,2,5,3x,6,4,7,1,5,2,6,3x,7,4,8,E2,E6,E4,E8,E3,E7,C,,7x,5x,6x,1x,4x,2,8,3,6,4,5,1,8x,2,7,,{32}8bh[8:1]/2b,3,4,5,,,,,1,,,,7b/1bh[8:1],6,5,4,,,,,{16}2,,2b/8b,,,,{16}
3bh[8:1]/7b,,4,4h[8:1],,5,5h[8:1],,6-3[8:1],,,,7/6,,,,2/6h[8:1],,5,5h[8:1],,4,4h[8:1],,3-6[8:1],,2,2,3,,,,7h[8:1]/1,,5,5h[8:1],,3,3h[8:1],,1-4[8:1]*-6[8:1],,,,1,,,,2h[8:1]/8,,4,4h[8:1],,6,6h[8:1],,8h[8:2],,6,5,4,3,2,1,5h[8:1],,7,7h[8:1],,1,1h[8:1],,A3,,B4,,A7,,B6,,1h[8:1],,3,3h[8:1],,5,5h[8:1],,D8,,B6,,B2,,D4,,8h[8:1],,,3h[8:1]/5h[8:1],,,2/6,,7-3[8:1]/1,2/6,3/5,,1/7,,,,2h[8:1]/8h[8:1],,,3h[8:1]/7h[8:1],,,4/6,,3,7,1,5,4-2-8-6-3[8:14],8,2,6,{4}Cf,,,,,,7xh[8:4],,
{16}
A3,E4,E5,A5,D3,B3,B5,D6,A2,B2,B6,A6,D2,B1,B7,D7,A4,E4,E3,A2,A6,E7,E8,A8,B1,C,B5,A5,1h[8:2],,,,4,3,2,1,5,6,7,8,5,4,3,2,4,5,6,7,1,2,3,4,2,3,4,5,1,2,3,4,8,7,6,5,2,3,4,5,6,7,8,1,2/6,5,4,3,2,1,8,7,6/3,4,5,6,7,8,1,2,3/5-1[8:1],,,,,,,,2,8,2,8,3,7,3,7,4,6,4,6,2,5,2,5,3,4,3,4,8,7,8,7,5,6,5,6,2,1,2,1,3,5,3,5,2,6,1,7,2,8,2,8,3,7,4,6,3,5,3,5,2,4,2,4,1-5[8:1],3,1,3,,,,,
5x,6,5x,6,4,5,4,5,3,4,3,4,2,1,2,1,3,8,4,7,5,6,4,5,3,4,2,5,1,6,8,7,1,2,3,4,5,6,7,8,1/5,4,3,2,1,8,7,6,5/2,3,4,5,6,7,8,1,E3,E2,E1,E8,E7,E6,E5,E4,{1}1b<5[8:58]*>5[8:58]b,,,,,,,,
{16}C,,,,1b-4-8-5-2[8:4]/B6/B7/E7f/A6/A7,,,,,,,,,,,,,,6,6,1,1,4-1-7-3-8-5[8:5]b,,,{32},3xh[8:5],{16},,,,,,,,,,,,3,,4hx,,5b-8-3-7-4[8:4]/B1/B2/E2f/A1/A2,,,,,,,,,,,,,,2,2,7,7,5-1-6-3-5-2[8:5]b,,,{32},6xh[8:5],{16},,,,,,,,,,,,5b,5b,3b,3b,4b-1[8:1],,,,4/7-5-8-4[8:3]b,,,,,,,,,,,,2x-4-6-8[96:31]*>1[8:3],,,,,,,,,,,A5f,E6f,E7f,A3f,E4f,E5f,A1f,E2f,E3f,A8f/D1/D8,,,,6bh[8:2],,,,2,,8b/4bh[8:2],,,,7,,1b<1[8:4]b/5b,,,,E1,E8,E7,E6,E5,E4,E3,E2,E1/D1f,,,,5x-8[8:1]/6,,5x/6-3-7[8:2]b,,,,,,,,,,2-5[8:1]/4x,,2/4x-8<7-5[16:5]b,,,,,,,,,,,1-5[8:1]/6x,,1p4v7[16:5]b/6x,,,,,,,,,,,2qq5[8:3]/8x,,2/8x,,,,,,,,6,,5hx,,4b/7,,,2/6,,,1/8,,1b/8b-4[8:1],,,,8/2-6-3-5[8:3]b,,,,,,,,,,,,7-5-3-1[96:31]*<8[8:3],,,,,,,,,,,A4f,E4f,E3f,A6f,E6f,E5f,A8f,E8f,E7f,A1f/D1/D2,,,,3bh[8:2],,,,4,,5b/7bh[8:2],,,,8,,2b>2[8:4]b/6b,,,,E3,E4,E5,E6,E7,E8,E1,E2,E3f/A3/A2,,,,6<1[16:3],,,1>4[16:3],,,4<7[16:3],,,7>2[16:3],,,2>5[16:3],,,5<8[16:3],,,8-4[16:3]b,,,4,,,D1,D2,D3,D4,D5/E5f/6bx,,,,,,,7h[8:1]/8h[8:1],,,7h[8:1]/8h[8:1],,,7<4[0.25##0.125]/8,,,B5/E5,,,,2h[8:1]/3h[8:1],,,2h[8:1]/3h[8:1],,,2-5[0.25##0.125]/3,,,{32}E8,B7,{16},,,6h[8:1]/8h[8:1],,,6h[8:1]/8h[8:1],,,6/8-4[0.25##0.167],,,C,,,,3h[8:1]/5h[8:1],,,3h[8:1]/5h[8:1],,,3/5,,E3,E4,E5,E6,E7,E8,E1,E2,E3,E4,
E5/7b,,,,7,6,5,2h[8:1]/4h[8:1],,,2h[8:1]/4h[8:1],,,2/4,,,{32}E3/8,B3,B4,E5,{16},,6h[8:1]/7h[8:1],,,6h[8:1]/7h[8:1],,,6/7,,,{32}E7/3,B6,B5,E5,{16},,2h[8:1]/1h[8:1],,,2h[8:1]/1h[8:1],,,2/1,,,{32}A3/8,E4,E5,A5,{16},,7h[8:1]/1h[8:1],,,7h[8:1]/1h[8:1],,,7/1,,,{32}A6/2,E6,E5,A4,{16},,,{32}1b/2b,3,4,5,,,,,8,,,,7b/8b,6,5,4,,,,,1,,,,
||s3/4
{4}1bw5[2.333##0.2]/2b,,,
||s4/4
,,,,Cf/B7/B3,,,,
{1},B3/B4,,E7/E6,,{8}A2`E3,,,,,,A6`E6,,,,,,B4,,,,{8}6,5h[8:15],4,3,,,,,,,,,,,,,3,4,5,6h[8:13],,,,,D6/A5,,,,D4/A4,,,,3,4h[8:15],5,6,,,,,,,,,,,,,6,5,4,3bh[8:13]/4,,,E5f/B5`B4,,,,,,6,,,,6,5,4,3h[8:4],,4,5,6h[8:4],,3,4,5h[8:3],,,4h[8:2],,3,4,5,6h[8:4],,5,4,3h[8:9],,6,5,4,,2,2,,1,3,5,1/7h[8:5],,8,8-2-4[8:4],,,,6,,5-8[16:3],,,2h[8:2],,1h[8:2],,8,8v5[16:3],,7/8,,6v3[16:3],,6/4,,2<7[8:2],2,,,
6,5,4,3h[8:8],,4,4,,1,,4,5h[8:5],,6,6,,3,4,5,6h[8:5],5,4,3,,3,4,5,6h[8:5],,7,7,,8,6,4,1/2h[8:5],,3,3<8[8:4],,,,1,,1q5[8:2],,,,8,,4/7,6,1/5,,2,4h[8:2],,5h[8:2],,6h[8:2],,{40}D6,A5,D5,A4,D4,{8}A3,,
{8}2<2[8:8]/7h[8:12],,,,,,,,,,,,3h[8:2],,4h[8:16],,,5>5>2[8:11],,,,,,,,,,,,,,,7>7[8:8]/1h[8:12],,,,,,,,,,,,6h[8:2],,5h[8:14],,,4<3[8:7],,,,,,,,,,,4,,4,,1h[8:3]/7-4[8:2],,,,,,2h[8:8]/3-8[8:2],,,,,,7,,6,,1h[8:3]/5-8[8:2],,,,,,3h[8:8]/8>5[8:5],,,,,,,,6,,4-1[8:2]/6h[8:3],,,,,,7h[8:8]/1-5[8:2],,,,,,4,,3,,8h[8:3]/2-4-6-8[8:6],,,,,,8>4[8:4]*<4[8:4],,,,,,,,2/6,,5<5[8:8]/1-4[8:2],,,,,,3<1[8:6],,,,,,2,,2,,3>5>1[8:10]/7-4[8:2],,,,,,5>7[8:6],,,,,,6,,6,,4>6[8:6]/6>4[8:2],,,,,,6-8-2>6[8:8],,,,,,,,8,,8>8[8:8]*p4[8:4],,,,,,,,1h[8:4],,,,8,,8,,7h[8:2]/1,,5,,4/A6/E7,,4,,2h[8:2]/4,,4,,5/B3/E4,,5,,8h[8:2]/5,,4,,3/B5/E6,,3,,1h[8:2]/4,,5,,6/B4/B3,,7,,8h[8:2]/5,,5,,5h[8:1]/7h[8:1],,6h[8:1]/4h[8:1],,1h[8:2]/5,,4,,4h[8:1]/2h[8:1],,5h[8:1]/3h[8:1],,8h[8:2]/4,,5,,5h[8:1]/7h[8:1],,4h[8:1]/6h[8:1],,1/5,2/4,3/5,4/6,7/8,1/6,2/5,3/4,
8b/B3/E4/B5/B4f/E5,,,,A6,A5,A4,A3,,,,,,,,,1b/B4/B6/E5/E6/B5f,,,,A3,A4,A5,A6,,,,,,,,,6b/E2/E3/D2/D3/B2f,,,,A7,A8,A1,A2,,,,,,,,,3b/4,,2/5,,1b/6,,8/7,,
5b/7,5b/7,4b/6,4b/6,3b/5,3b/5,2b-5[8:1]/6,1b/7,
8b/A2f,,6x/8,4,2-5[8:1]/8,,2/8,,8/6x,4,2>5[8:1]/8<5[8:1],,2-6[8:1]/8,,2/7-4[8:1],,1/7,,3x/1,5,7-4[8:1]/1,,7/1,1h,1/3x,5,7<4[8:1]/1>4[8:1],8,7/1-5[8:1],,6-1[8:1],,4/6,,4/2x,8,6-1[8:1]/4,,6/4,4h,4/2x,8,6<1[8:1]/4>1[8:1],,6-4[8:1]/4,,6/3-8[8:1],,5/3,,5/7x,1,3-8[8:1]/5,,3/5,5h,5/7x,1,3/5,5h,{16}4b,6b,,1,4b,3b,4b,3b,{8}8-6[8:1],,2-5[8:1]/8,1,2/8-5[8:1],,2-4[8:1]/8,,2/8-4[8:1],1,2-6[8:1]/8-6[8:1],,2-4[8:1]/8-4[8:1],,2-6[8:1]/8,,2/8-3[8:1],,8/4-8[8:1],5,4/7-4[8:1],,7/3-7[8:1],2,3/6>3[8:1],5,1-5[8:1]/6,2,1/4bw8[8:1],,4b,,
3b/4b,3b/4b,3b-1[8:1]/4b-8[8:1],,3-7[8:1]/4-6[8:1],,3-1[8:1]/4-8[8:1],,3-6[8:1]/4,,3>8[8:1]/7<4[8:1],,3/7w3[8:1]b,,7b,,1-5[8:1]/5-7[8:1],,1/5,,8-4[8:1]/4-2[8:1],,8/4,,2x/5,4/7,1/5,4/8,{16}4,5,3,6,2>7[8:2]b,7,1,8,{8},,,,
{16}1,2,3,4,1-3-5[16:3],8,7,6,1-7-5[16:3],,,,1,,,,4,3,2,1,5-3-1[16:3],6,7,8,5-7-1[16:3],,,,5,,,,2,3,4,5,8,7,6,5,8,1,2,3,1>5[16:2],8,7,6,1/5>1[16:2],,,,8,,,,2/6,,3/7,,4/8,,5/1,6,7,8,1-7-5[16:3]/5,2,3,4,1-3-5[16:3],,,,1,,,,8,1,2,3,4-2-8[16:3]/8,5,6,7,4-6-8[16:3],,,,4,,,,1,2,3,4,8,7,6,5,8,1,2,3,7x,4x,6,5,7x,3x,5,4,7x,2x,4,3,8x,,,2/4,,,5/6,,8/4>1[16:3],,,,
7,6,5,4,8,7,6,5,7,3,7,3,6<1[16:3],,6,,2,3,4,5,2,3,4,5,3,7,3,7,4>1[16:3],,4,,8h,7,6,5,8/4>1[16:3],7,6,5,8h
,7,6,5,8,7,6,5,4h[8:1]/8h[8:1],,,,1h[8:1]/6h[8:1],,,,3/4,,5/6,,2/4,,5/7,,4/8,3,2,1,4/8,7,6,5,4/8,3/7,2/6,1/5,4/8,,8,,5/1,6,7,8,5/1,2,3,4,5/1,6/2,7/3,8/4,5h[16:3]/1,,,,4/6,,5,,2/4,,3,,4/7,,6,,5/1,,1/5,,3-8[8:1]/7-4[8:1],,
||s7/8
{16},,,,,,1,4,2,5,3,6,4,7,
||s4/4
{8}5,8xh[8:2],,{24}5,4,3,{4}2xh[8:2],{24}4-8[8:2],5,6,{8}7xh[8:3],,,,,{24}1v4[8:1]/7v4[8:1],2/6,3/5,{8}4,,,
{8}2b/6b<1[8:1],{24}2,3,4,{8}5-2[8:1],,5/8<5[8:1],,1/8,{24}1,2,3,{8}4-7[8:1],,3/4>1[8:1],,8/4,{24}8,7,6,{8}5-8[8:1],1,5/2-6[8:1],3,2/1-4[8:1],,1/8,,3>8[8:1]/7,{24}7,6,5,{8}4,,{16}5,6,7,8,2,3,4,5,{8}1<6[8:1],,1b/5b,{24}5,4,3,{8}2,1/2,7-4[8:1]/3,,2/7,1,{16}8,7,4,5,1,8,3,4,2-5[8:1],,6v1[8:1],,2,,6,,{24}4b,3,2,8,7,6,{8}5/1x>7[8:2],1xh[8:3],,,,,{24}8b,7,6,4,3,2,{8}1/8x<2[8:2]*p4[24:4],8x,,,,,
{8}4b/8b<5[8:1],{24}4,3,2,{8}1-5[8:1],,1/6<1[8:1],,2/6,{24}2,3,4,{8}5-8[8:1],,5/3>8[8:1],,7/3,{24}7,6,5,{8}4-8[8:1],8,4/1-6[8:1],2,1-4[8:1]/7,,1/3,,6<1[8:1]/2,{24}2,3,4,{8}5,,{16}4,3,2,1,7,6,5,4,{8}8>3[8:1],,8b/4b,{24}4,5,6,{8}7,8/7,2-5[8:1]/6,,7/2,8,{16}1,3,5,4,8,1,6,5,7v4[8:1],,3-8[8:1],,7,,3,,
{24}5b,6,7,1,2,3,{8}4/8x<2[8:2],8xh[8:3],,,,,{16}3b,6,4b,5,2bqq6[8:3]b,7,4b,5,,,,,,,,,
{8}7-3[8:1],8,7/1-4[8:1],,1/5-1[8:1],6,5/3-6[8:1],,3/8z4[8:2],7,8/2,,{16}1,2,3,4,5/6,,6/5,,{8}4>1[8:1]/7,3,4/8-4[8:1],,8/2-7[8:1],3,2/5-2[8:1],,5/1-6[8:1],1-4[8:1],,,7,7,{16}4,4,{8}4,6-3[8:1],7,6/4-8[8:1],2,4/5,,{16}6,6,{8}6,3>8[8:1],4,3/6-1[8:1],,6/5,,{16}3,3,{8}3,2/4,{16}7,5,6,,1,4,{8}3,8,5/7,4/6,{16}3/5,2,1,8,4,5,6,7,1,2,3,4,2,3,4,5,
{8}6/2-6[8:1],1,2/8-5[8:1],,8/4-8[8:1],3,4/6-3[8:1],,6/1v2-4[8:2],2,1/7,,{16}8,7,6,5,4/2,,2/4,,{8}5<8[8:1]/1,6,5/1-5[8:1],,1/7-2[8:1],6,7/4-8[8:1],,4/8>3[8:1]*<5[8:1],,8x,,2/6,2/6,{16}4,4,{8}4,3-5[8:1]*-6[8:1]/5,2,3-1[8:1]*-8[8:1],,3,,6/5,{8}7/4,D3,E6,E4,D7,2h[8:1],4h[8:1],5h[8:1],7h[8:1],{16}2b,3,4,5,6,7,8,1,2/5b,6,7,8,1,2,3,4,5/1b,2,3,4,5/7b,8,1,2,3/7b,4/8,5/1,6/2,7b/3,8/4,1/5,2/6,
{2}3p1[8:22]/7p5[8:22],,,,,,,{16}3,4,5,6,3,4,5,6,
1b,,7,5/7,,4,4/6,,3,5,1,7,4>7[8:2]b,,4,,7-5-3-1[8:2],,,4,,,8h[8:2],,,,2,7,5,6,2,,1b,6,4,7,2,5,{24}3,4,3,{16}4,2,6,5,8,1,7,3,4h[16:3],,,5-2>4-8[16:5]b,,,6bh[16:6],,,,,,D1/D8/A8f,,,,7,1,6,5,8,,1/7,,2,2,3,,6,5h[16:3],,,8-3[0.25##0.125],,8,6-1[0.25##0.125],,6,4-7[0.25##0.125],,4,2,,,1b/8x,,3/7,,6bh[8:1],,5,5bh[8:1],,4,4bh[8:1],,3h[8:1],,{24}2b,1,8,7,6,5,4,,,{32}5bx/3bx,6/2,7/1,8,{16},,2x,,{32}1b/2b,3/8,4/7,6,{16}5x-1[8:1]b,,5x,,C,,,,{32}2b/8b,3/7,4/6,D5f/5x<5[8:4]b*>5[8:4],{16},,,,,,,,,,,,,,7-3[0.25##0.125],,,2-5[0.25##0.125],,,6-4-8[16:3],,,,1h[16:3],,,,,,2,,6,5/6,,3,4/3,,6,5,7,,8/6-3[0.333##0.125],,5/1,,2-6[0.25##0.125],,,8-4[0.25##0.125],,,1,,1,,2,5,3,4,1,,2b/8b,,3,3/4,,6,5/6,,4,7,2,5,4,,1/7,,2,3,4,5,8,7,6,5,{24}2b,4b,2,4,2,,{24}7b,5b,7,5,7,,{16}4b,6,2,5,3,8,4,4,6b,5,7,1,4,2,6h[8:1],,{24}3b,7,3,7,3,7,2b,6,2,6,2,6,{32}1b,8,7,6,5,4,3,2,1b,8,7,6,5,4/6x,3/7x,2/8x,{4}1b-7-2-6-3-5-1[8:9],,,,,,,{8}8h[8:1],5,7h[8:1],4,6h[8:1],3,5h[32:5],2-5-7-4-1[8:5],4h[8:8],,,,,,,,{4}A1f/B1h[16:1]f/E1h[16:2]f/E2h[16:3]f,{32}7b,6,5,4,{16},B6h[16:1]f/B7h[16:2]f/E7h[16:3]f/B2/B3/E3,,,,,{32}1b,2,3,4,{8}5,8,{32}8b,1b/7b,2b/6b,3b/5b,{8}4b,,,,4/5,4h[8:11]/5h[8:11],{4},,,,,,,,8/E6/A6,1/A3/E4,{4},,{32}2h[32:1]/C,B8,,,,,,,,,,,,,,,1bx/8bx,2x/7x,3xh[32:14]/6xh[32:14],5bxh[32:13]/4bxh[32:13],
E
