&title=だれかぬいてくれ
&artist=ぬぬぬぬぬぬぬぬぬぬぬぬぬぬぬぬ
&first=1.36
&des=潘潘ちゃん
&lv_5=14
&inote_5=(160)
{8}
1V36[12:9]/5V72[12:9],,,,,,,,,,,,4-1[16:3],,4-7[16:3],,,,,,,,,,,,,,,,,,,,,,,,,,,,,,
(180)
{24}
16,27,38,4,5,6,7,8,1,2,3,4,
{8}5bw1[8:1],,5bV73[16:5],,,,,,4bw8[8:1],,4bqq1[16:7],,,,,,5b,4bp8[8:1],,,5b>2[8:1],,,
{16}
7,6,5,,1,,4w8[8:1],,,,4bqq6[12:12],,,,,,,,,,,,,,,,,,,,2-7[8:1],,,,,,,,8h[16:3],,,5,6,,,,71,,,,4b/3b,,2,,6,,2,,4b/5b,,7,,3,,7,,6b/5b,,2,4,3>6[12:3],,5h[16:6],,3b,,,,,,,,
{8}54,2-4[8:1],6,8-6[10:1],,1-5[8:1],,1,7,8-6[10:1],4,2-4[10:1],,1-5[8:1],,1,3,2-4[8:1],6,8-6[10:1],,1-5[8:1],,1,4>1[8:1],,4b<7[8:1],,4b-8[8:1],,4b,,6,7-5[8:1],3,1-3[10:1],,8-4[8:1],,8,2,1-3[10:1],5,7-5[10:1],,8-4[8:1],,8,6,7-5[8:1],3,1-3[10:1],,8-4[8:1],,8,1>4[8:1],,1b<6[8:1],,1b-5[8:1],,1b,{16}7,7,4w8[8:1],,,,4b>5[16:8],,,,,,,,,,
4,,3h[16:2],,,,2h[16:2]/4h[16:2],,,,3h[16:2]/5h[16:2],,,,2h[16:2]/4h[16:2],,,,1h[16:2]/3h[16:2],,,,2h[16:2]/4h[16:2],,,,3,,4b/6b,,7b/8b,,3b/5b,,1b/2b,,,,5h/6h,,,,3h/4h,,,,6xp3[12:7],,5,,,,,,,,,,,,1h[16:1],,1>4[8:1],,,,6h[16:2],,,,7h[16:2]/5h[16:2],,,,1h[16:2]/6h[16:2],,,,4h[16:2]/7-2[8:1],,,,5h[16:2],,,,6h[16:2],,,,5,,4b/3b,,2b/1b,,6b/5b,,8b/7b,,,,,,,,,,,,,,2h[16:6],,,,,,
{24}
4,5,6,7,8,1,2,3,4,5,6,7,8,1,2,
{16}3,,,,5,,6-8[10:1]/4,,3,,6,,1,,,,3,4,3-1[10:1],,5,,8,,,,56,,7,,34,,2,,5b,,1,,6,,46,,3/7,,2/8-4[8:1],,1,,3b-7[8:1],,,,5b,,6bv1[8:1],,,,8b,,2,,,,4,,35,,35,,,,65,,47,,47,,,,35,,26,,1v4[16:3]/7,,,,,,,,8,,3b/7b,,26,,1/5<8[8:1],,,,53,,,,4,,1s5[12:3],,37,,1<5[12:3]/5>1[12:3],,,,1s5[12:3],,,,,,,,6,,7bV13[16:3],,4,,3b,,5bqq4[16:3],,,,6b,,8b,,7bpp8[16:3],,,,5b,,3b,,4bv1[16:3],,,,4,,6>3[8:1],,5,,2V46[16:3],,2,,7b,,,,8,,1,7,{32}2b,3b,4b,,8b,7b,6b,,,,,,{8}1bq5[8:1],,5b,7b<4[8:1]*p3[8:1],,7b,,,,1h[16:2]/2h[16:2],,5v8[8:1]/6-1[8:1],,6,,,,3h[16:2]/6h[16:2],,8-2[8:1]/4v1[8:1],,8,,,,3h[16:2]/8h[16:2],,26,,45,6/8-2[8:1],,7,,3-5[10:1],4-6[10:1],,,3b,7,,
1h[16:2]/2h[16:2],,5v8[8:1]/6-1[8:1],,56,,,,3h[16:2]/6h[16:2],,8-2[8:1]/4v1[8:1],,48,,,,3h[16:2]/8h[16:2],,26,,45,6/8-2[8:1],,7,,8v5[8:1],4<7[8:1],8,{16}3b,2b,1b,,,,5b-3[10:1]/6b,,,,5,,7b<5[10:1],,2,,7,,8bq4[8:1],,,,4,,6bq2[8:1],,,,6b,,5>3[10:1],,,,5b/8-6[10:1],,,,8,,2bv5[8:1],,,,2b,,1V75[16:3],,4,,1b,,3-1[8:1],,2,4,3bv8[10:1],,5<7[10:1],,3b,,,,{24}
1,2,3,4,5,6,7,8,1,2,3,4,
{8}5bw1[8:1],,5bV73[16:5],,,,,,4bw8[8:1],,4bqq1[16:7],,,,,,5b,4bp8[8:1],,,5b>2[8:1],,,
{16}
7,6,5,,1,,4w8[8:1],,,,4bqq7[12:12],,,,,,,,,,,,,,,,,,,,2-7[8:1],,,,,,,,8h[16:3],,,5,6,,,,71,,,,4b/3b,,2,,8,,1,,7b/5b,,6,,4,,5,,3b/4b,,2,5,3>6[12:3],,7,,3b/6b,,,,,,,,43,,2-8[10:1],,5,,7v4[8:1],,,,1>4[8:1],,,,5,,6,,7-1[10:1],,5,,2v5[8:1],,,,8<5[8:1],,,,4,,3,,2-8[10:1],,4,,7v4[8:1],,,,1>4[8:1],,,,5,,6-8[10:1],,,,1-5[8:1]/6b,,,,1b/4-2[10:1],,,,4b,,,,17,,6-4[10:1],,8,,3q7[8:1],,,,5<8[8:1],,,,1,,2,,3-5[10:1],,1,,6p2[8:1],,,,4>1[8:1],,,,8,,7,,6-4[10:1],,8,,3q7[8:1],,,,5<8[8:1],,,,1,,2-4[10:1],,,,5-1[8:1]/2b,,,,5b/8-6[10:1],,,,8b,,2,3,4w8[8:1],,,,4b>5[16:8],,,,,,,,,,,,,
{32}2b,3b,4b,,{16}8b,8b,1b,,{32}5b/6b,,,,{16}
3b-6[8:1],7b-2[16:1],1b,,3b/7b,,,,
(174)
{8}
48,,25,,16,,7,5,8,,1pp4[16:12],4,1,,5h,,7h,,6-2[16:3],,4-8[16:3],,,,7,,16,,82,,3V14[12:6]/4,,1,,4qq1[16:12],,8,,5h,,7h,,6-2[16:3],,8-4[16:3],,,,5,,26,,17,,8q4[12:4],,
(140)
4q8[12:3],,3,2,
(125)
1pp4[16:13],,
(100)
5h[16:2],,
(64)
7h[16:2],,
(180)
6h[16:8],,,,{16}3-5[8:1],,,,7-4[8:1],,,,,,2-5[8:1],,,,{24}6h[24:2],,,,,,{16}6-3[8:1],,,,2,,1-5[8:1],,,,7-3[8:1],,{12}7,,4,{16},,,2v5[8:1],,2,,8-4[8:1],,,,{64}8v6[8:1]*v2[8:1],,,,,,,,,,,,,,,,,,,,,,,,,,,,,,,,,,,,,,,,,,,,,,,,,,,,,,,,,,,,,,,,,,,,,,,,,,,,,,,,,,,,,,,{8}4b/5b,,6>4[10:1],3,6,1v4[8:1],,1v6[8:1],,,,3-5[10:1],4-6[10:1],,,{13}2h,,,3,8V64[12:9],4bqq1[16:22],,,,,,,,,,,,,,,,,,,,,,,,{64},,,,,,,,,{4}3,,,,,,,,,,,,,,
{8}
6,5,4,3,2,,,2,4,3,6,5,8,,,7,,6,4,5,1-4[16:5],1,4,,,6,5,5,8-5[16:5],8,4,3,,2,2,4,3,,3<6[16:5],,3,,3v6[16:5],,3,,3p6[16:5],,3,,2<7[12:6],,,,,,4>5[12:9],,,,,,,,4h[16:8],,,,1b>4[8:1],,,6,57,6,5<8[8:1]/4,3,2h[16:4],,,1-5[8:1],,1,3,4,6V42[16:4],7,8h[16:2],,,7,1,6,4-8[8:1],3-1[10:1],4,3,,7,6,5,2h[16:2]/4h[16:2],,2h[16:2]/4h[16:2],,3h[16:2]/5h[16:2],,3h[16:2]/5h[16:2],,4h[16:2]/6h[16:2],,4>1[8:1]/6<1[8:1],,4bqq1[12:8]/6b,,,,,,,,{32}7b,6b,5b,,2b,3b,4b,,,,,,{8}8bp4[8:1],,5b,2b>5[8:1]*q6[8:1],,2b,,,,1h[16:2]/2h[16:2],,5v8[8:1]/6-1[8:1],,5,,,,3h[16:2]/6h[16:2],,8-2[8:1]/4v1[8:1],,4,,,,3h[16:2]/8h[16:2],,26,,45,6/8-2[8:1],,7,,3-5[10:1],4-6[10:1],,,3b,7,,
1h[16:2]/2h[16:2],,5v8[8:1]/6-1[8:1],,56,,,,3h[16:2]/6h[16:2],,8-2[8:1]/4v1[8:1],,48,,,,3h[16:2]/8h[16:2],,26,,45,6/8-2[8:1],,7,,8v5[8:1],4-7[8:1],8,{16}3b,2b,1b,,,,
5b-3[10:1]/6b,,,,5,,7b<5[10:1],,1,,7,,8bv3[8:1],,,,48,,6b<1[8:1],,,,6b/4,,5-3[10:1],,,,5b/8-6[10:1],,,,8,,2bv5[8:1],,,,2b,,1V75[16:3],,4,,1b,,3-1[8:1],,2,4,3bv8[10:1],,5<7[10:1],,3b,,,,{24}
1,2,3,4,5,6,7,8,1,2,3,4,
{8}5bw1[8:1],,5bV73[16:5],,,,,,4bw8[8:1],,4bqq1[16:7],,,,,,5b,4bp8[8:1],,,5b>2[8:1],,,
{16}
7,6,5,,1,,4w8[8:1],,,,4bqq8[12:12],,,,,,,,,,,,,,,,,,,,2-7[8:1],,,,,,,,8h[16:3],,,5,6,,,,71,,,,4b/3b,,2,,5,,4,,5b/6b,,7,,3,,8,,2b/1b,,2,4,3>5[16:5],,5,,3b/7b,,,,,,,,4b,4b,4b,4b,4b,4b,4b,4b,{8}4b,
7,5,6,3,5,2,4,{24}1,2,3,4,5,6,7,8,1,2,3,4,
{16}
5/6b,,7<4[8:1],8,7,,1-5[8:1],,2,,6-8[8:1],,7,,4,,
2b,,3-5[10:1],1,3,,8-4[8:1],,7,,3>1[10:1],,2,,5,,7b,,6-4[8:1],8,6
,,1-5[8:1],,2,,6<8[10:1],,7,,4,,,,,,
{24}
83,7,6,,,,15,2,3,,,,74,6,5,,,,
{24}3b,2,1,8-4[8:1],7,6,,,,
{8}
8,3,5,2>5[8:1],4,
{24}6b,7,8,1-5[8:1],2,3,,,,
{8}
1,6,4,7<4[8:1],5,
{24}3b,2,1,8-4[8:1],7,6,,,,
{8}
8,2,3>1[10:1],5,3,,,
{24}
78,16,25,,,,18,27,36,,,,21,83,74,,,,
{16}
5b/6b,,,,4,,5,,3,,7-5[8:1],,,,5,,4,,3,,4,,4,5,4,5,4,,4,,6,5,7,5,6,,4,,3,5,2,5,4,6,5,,4,,2>4[10:1],,3,,5,,6h[16:1],,,5,6,,4h[16:4],,5h[16:2],,,,,,3,,3,4,3,,7-5[8:1],,,,5,,4,,3,,4,,4,5,4,5,4,,4,,6,5,7,5,6,,4,,3,5,2,5,4,6,5,,4,,2>4[10:1],,3,,5,,6,6,5bv3[8:1]/7b>3[8:1],E
