&title=[即]Our Wrenally
&artist=t+pazolite
&first=0.000
&des=原田ひろゆき?
&lv_7=14?
&des_7=原田ひろゆき?
&inote_7=(210)
{16},,,,
,,,,
,,,,
,,,,
{16},,,,
,,,,
,,,,
,,,,
{16}8h[1:4],,,,
,,,,
,,,,
,,,,
{16},,,,
,,,,
,,,,
,,,,
{16},,7,,
7,,7,,
7,,7,,
7,,7,,
{16}6,,6,,
5,,5,,
4,,4,,
5,4,3,2,
{16}1>4[8:3],,,,
,,,,
8,,,,
,,,,
{16}8<5[8:3],,,,
,,,,
1,,,,
,,,,
{16}1h[1:2],,2,,
2,,2,,
2,,2,,
2,,2,,
{16}3,,3,,
4,,4,,
5,,5,,
4,5,6,7,
{16}8<5[8:3],,,,
,,,,
1,,,,
,,,,
{16}1>4[8:3],,,,
,,,,
8,,,,
,,,,
{16}8h[1:2],,7,,
7,,7,,
7,,7,,
7,,7,,
{16}6,,6,,
5,,5,,
4,,4,,
5,4,3,2,
{16}1,,1,,
8,,8,,
1,8,1,8,
1q8[2:1],8,1,8,
{16}1h[2:1],,,,
,,,,
,,,,
,,,,
{16}5/3,,6,6,
2v4[4:1],,3,,
4p8[8:1],,,,
7,,7,,
{16}6h[4:1],,,,
5,,4,,
3,,4,,
5,,6,,
{16}6/3,,,,
5V73-1[8:3]/4V26-8[8:3],,,,
,,,,
,,,,
{16}3/6,,4,,
3/6,,5,,
4/5,,4,5z1[8:5],
4s8[8:5],,3/6,,
{16}4,,,,
,,,,
,,,,
2,,,,
{16}4/7-5[8:1],,,,
4,,3,,
2/7-1[8:1],,3,,
4/7,,5,,
{16}6,,5,,
4,,3,,
2,,1,,
8z4[2:1],,7,,
{16}4/8,,,,
,,,,
,,,,
3/4,,,,
{16}1/6,2,3,4,
5,,5,,
6,,1,,
7-4[8:1],,4-8-3>6[2:1]*-8[384:49]*-8-3[384:95],,
{16}7,,,,
,,,,
,,,,
2/7,,,,
{16}3/8,7,6,5,
4,,4,,
3,,8,,
2-5[8:1],,5-1-6<3[2:1]*-1[384:49]*-1-6[384:95],,
{16}2,,,,
,,,,
,,,,
2/7,,,,
{16}4/5,,3,,
4/5,,6,,
4/5,,3,,
4/5,,6,,
{16}3/5,,2,,
4/6,,7,,
3/5,,2,,
4/6,,7,,
{16}2/5,,1,,
4/7,,8,,
2/5,,1,,
4/7,,8,,
{16}3/5,,4,4,
4,,3/5,,
4-8[8:1],,,,
,,,,
{16}6h[1:1],,,,
,,,,
5,,,,
,,,,
{16}3h[1:1],,,,
4,,,,
4,,,,
,,,,
{16}7h[1:1],,,,
,,,,
6,,,,
,,,,
{16}4h[1:1],,,,
5,,,,
5,,,,
,,,,
{16}5h[1:1],,,,
,,,,
4,,,,
,,,,
{16}2h[1:1],,,,
3,,,,
3,,,,
,,,,
{16}8h[1:1],,7,,
7,,7,,
7,,7,,
7p2[2:1],,7,,
{16}7,,,,
,,,,
,,,,
1,,8,,
{16}7h[1:1],,,,
,,,,
8,,,,
,,,,
{16}2h[1:1],,,,
,,,,
1,,,,
,,,,
{16}7<3[2:1],,,,
,,2,,
3q8[2:1],,,,
1,,,,
{16}1h[2:1],,,,
,,,,
,,,,
8,,1,,
{16}2h[1:1],,,,
3,,,,
4,,,,
5,,,,
{16}7h[1:1],,,,
6,,,,
5,,,,
4,,,,
{16}3,,3,,
6,,6,,
4,,4,,
5,,5,,
{16},,4/5,,
5/4,,3/6,,
4-1[8:1]/5-8[8:1],,,,
4/5,,,,
{16}3,4,3,,
3,2,3,,
3,5,3,,
3,1,3,,
{16}3,6,3,,
3,8,3,,
3-1[8:1],7,3,,
3b,,,,
{16}6,5,6,,
6,7,6,,
6,4,6,,
6,8,6,,
{16}6,3,6,,
6,1,6,,
6,2,6,,
4/5,,3/6,,
{16}4,5,4,,
4,6,4,,
4,7,4,,
4,8,4,,
{16}5,4,5,,
5,3,5,,
5,2,5,,
5,1,5,,
{16}4,5,3,6,
2,7,1,8,
1,8,2,7,
3,6,4,,
{16}5/4,,,,
,,,,
4-1[8:1]/5-8[8:1],,,,
4b/5b,,,,
{16}2/5,,3,4,
3,,2,,
4/7,,6,5,
6,,7,,
{16}3/6,,5,4,
5V73[4:1],,2,,
5/3-8[8:1],,,,
1b,,,,
{16}5/4,,,,
5/4-1[8:1],,4/5,,
4/6,,6,,
6-8[8:1],5,7,5,
{16}6,,,,
7-4[8:1],,7,,
3-8[8:1],,,,
6,,,,
{16}4/7,,6,5,
6,,7,,
2/5,,3,4,
3,,2,,
{12}5/6,7,4,
6/5,7,4,
{16}5-2[8:1]/6-1[8:1],,,,
5/6,,,,
{16}4/7,,,,
3/4,,2/5,,
1/6,,7,8,
7,,2,1,
{16}2,,3/8,,
7/4,,3/8,,
4-8[8:1]/7-5[8:1],,,,
4/7,,,,
{16}4/7,,6,5,
6,,7,,
2/5,,3,4,
3,,2,,
{16}6/3,,4,5,
4V26[4:1],,7,,
6-1[8:1],,,,
8b,,,,
{16}4/5,,,,
4/5-8[8:1],,3/5,,
5/3,,3,,
3-1[8:1],4,2,4,
{16}3,,,,
2-5[8:1],,2,,
6-1[8:1],,6,,
3,,3,,
{16}2/5,,3,4,
3,,2,,
4/7,,6,5,
6,,7,,
{12}3/4,2,5,
4/3,2,5,
{16}3-8[8:1]/4-7[8:1],,,,
3/4,,,,
{16}2/5,,,,
5/6,,4/7,,
3/8,,2,1,
2,,7,8,
{16}7,,1/6,,
5/2,,1/6,,
2-4[8:1]/5-1[8:1],,,,
2/5,,,,
{16}6/5,,4,4,
7v5[4:1],,6,,
5q1[8:1],,,,
2,,2,,
{16}5/2-8[8:1],,,,
5,,6,,
7/2-4[8:1],,6,,
5,,6,,
{16}7h[4:1]/2-8[8:1],,,,
,,,,
7/2-4[8:1],,7,,
6,,7,,
{16}5/2-8[8:1],,,,
5,,6,,
7/2-4[8:1],,6,,
2/5,,,,
{16}3/5,,6,6,
2v4[4:1],,3,,
4p8[8:1],,,,
7,,7,,
{16}4/7-5[8:1],,,,
4,,3,,
2/7-1[8:1],,3,,
4/7,,5,,
{16}6,,5,,
4,,3,,
2,,1,,
8z4[2:1],,7,,
{16}4/8,,,,
,,,,
,,,,
,,,,
{16}4h[1:1],,,,
,,,,
3,,,,
,,,,
{16}5h[1:1],,,,
,,,,
6,,,,
,,,,
{16}3h[2:1],,,,
,,,,
1h[2:1],,,,
,,,,
{16}8,,,,
7v2[4:1],,,,
7,,,,
,,,,
{16}5,,,,
5,,,,
4/6,,,,
,,4,,
{16},,4,,
,,,,
3/5h[1:1],,,,
,,,,
{16},,6,,
6,,6,,
6,,5,,
4,,3,,
{16}4/5,,6,,
4-1[8:1]/5-8[8:1],,3,,
4/5,,,,
3b/6b,,,,
{16}1/6,,7,8,
7,,1/6,,
3/8,,2,1,
2,,3/8,,
{16}3/6,,5,4,
5V73[4:1],,1/6,,
5/3-8[8:1],,,,
1b,,,,
{16}3/5,,,,
7/5-8[8:1],,4/6,,
5,,3,,
3-1[8:1],4,2,4,
{16}3,,,,
2-5[8:1],,2/6,,
6-1[8:1],,6,,
3/6,,,,
{16}3/8,,2,1,
2,,3/8,,
1/6,,7,8,
7,,1/6,,
{12}3/4,5,5,
4/3,2,2,
{16}3-8[8:1]/4-7[8:1],,,,
3/4,,,,
{16}2/5,,,,
5/6,,4/7,,
3/8,,2,1,
2,,7,8,
{16}7,,1/6,,
5/2,,7/8,,
2-4[8:1]/5-1[8:1],,,,
2/5,,,,
{16}3/8,,2,1,
2,,3/8,,
1/6,,7,8,
7,,1/6,,
{16}6/3,,4,5,
4V26[4:1],,3/8,,
4/6-1[8:1],,,,
8b,,,,
{16}6/4,,,,
2/4-1[8:1],,3/5,,
4/6,,6,,
6-8[8:1],5,7,5,
{16}6,,,,
7-4[8:1],,3/7,,
3-8[8:1],,3,,
3/5,,6,,
{16}1/6,,7,8,
7,,6,,
3/8,,2,1,
2,,3,,
{12}5/6,7,7,
6/5,4,4,
{16}5-2[8:1]/6-1[8:1],,,,
5/6,,,,
{16}4/7,,,,
3/4,,2/5,,
1/6,,7,8,
7,,2,1,
{16}2,,3/8,,
7/4,,1/2,,
4-8[8:1]/7-5[8:1],,,,
4/7,,,,
{16}1/6,2,3,4,
5,,5,,
7,,4,,
7-3[8:1],,3-8-4>6[2:1]*-8[384:41]*-8-4[192:43],,
{16}7,,,,
,,,,
,,,,
3/8,,,,
{16}3/8,7,6,5,
4,,4,,
2,,5,,
2-6[8:1],,6-1-5<3[2:1]*-1[384:41]*-1-5[192:43],,
{16}2,,,,
,,,,
,,,,
1/6,,,,
{16}1/8,,2,,
1/8,,7,,
1/8,,2,,
1/8,,7,,
{16}2/8,,3,,
1/7,,6,,
2/8,,3,,
1/7,,6,,
{16}3/8,,4,,
1/6,,5,,
3/8,,4,,
1/6,,5,,
{16}4/6,,5,5,
5,,4/6,,
5-1[8:1],,,,
3s7[1:3],,,,
{16}4,,,,
,,,,
8,,,,
,,,,
{16},,4,,
,,,,
,,,,
8,,,,
{4}
