&title=风吹月影的独步(3.3Ver.Remix)
&artist=jkinss / jixwang
&first=0
&des_5=ナツナツフユフユ
&lv_5=12+
&inote_5=(64)
{8},
{8}B3h[4:1]/B4h[8:3],,,B5h[8:3]/B6h[4:1],,,3hx[8:3],,,4,5,
{32}7,8,7,,
{16}6-2[8:1],,,,
{16}2,1,8^3[8:1],,,,
{16}4,5,6p4[4:1],,,,C,,3,,3,,4,
{32}2,1,2,,3^6[8:1],,3,,,,
{8}7,7v5-3[4:1],,1,
{8}3<7[8:1],,1,{16}1h[16:3],,,B8,,,
{16}1xqq3[8:1]/B6h[8:1],,,,
{16}5,6,7pp6[8:1],,7,,,,
{16}5p4[8:1],,5,,,,
{16}D7,,D6,,4,3,
{8}2^5[8:1],B3/B4,,
{8}6-3[8:1],E8/B8,,
{16}2,1,8h[8:1],,1,,
{16}6,5,4h[8:1],,5,,
{16}3-7[8:1],,,,
{16}7,8,1^6[8:1],,,,
{16}5,4,3q5[4:1],,,,C,,6,,6,,5,
{32}7,8,7,,6^3[8:1],,6,,,,
{8}2,2^5p1[4:1],,8,
{8}6>2[8:1],,8,1,12,13,
{16}1h[8:1]/4pp1[8:1],,,,
{16}3,4,5qq8[8:1],,,,
{16}6,5,4,3,2,1,8^2[8:1],,
{16}4,5,6,7,8,
{32}3,4,{16}3^8[8:1],8,8V25[8:1],7,6,,
{8}5,7,1,{16}68,57,46,35,
{8}2/4V68[8:1],8V24[8:1]/6,2h[8:1]/4,,
{8}8b^2[8:1],,,
{8}8b^5[8:1]b,,,
{8}1>5[8:1],5<1[8:1],1/8p4p8[4:1],8h[8:1],,,
{8}5hx[2:1],,4^7[8:1],7^1[32:3],,,
{16}2,34,45,67,78,15,{32}2,4,2,4,3,5,3,5,4,6,4,6,
{8}8b^6[8:1]/C,,,
{8}8b^3[8:1]b,,,
{8}1<5[8:1],5>1[8:1]/6,1/2p6p2[4:1],2h[8:1],,
{16}7,6,5pp6[8:1],,,,
{16}3,2,1pp2[8:1],,,,
{16}6,5,4qq5[8:1],4,,,
{16}8,1,2,3,45,16,{32}7,8,7,8,
{16}7V13[8:1]*-3[8:1]b,,3-7[8:1]/5,,7V51[16:3],,,1,,,,,
{16}2-4[8:1]b*V86[8:1],,6/4V62[8:1],,2-4-6-8[16:3],,,8-2[16:1],,,,,
{8}3h[8:1],4h[8:1],,
{32}4,,5,,4,,,5,4q5[8:1],,5,,5<4[4:1],,,6,4,,,,,,,,
{8}Ch[4:1],,,
{16}8xpp6[8:1]/B3,,,,
{16}4,3,2qq3[8:1],,2,,,,
{16}4q5[8:1],,4,,C,,
{16}D3,,D4,,5,6,
{8}7^4[8:1],4V68[8:1],B4/B5,
{16}3,2,1qq3[8:1],8,7h[8:1],,
{16}1<4[4:1]b,6,7,8,1,,,,8,1,
{32}3,4,3,,
{16}2^5[8:1],,5,6,7,,
{16}7^4[8:1],,8,1,2,,
3^6[8:1],,1,8,7,,
{16}7qq4[1:1],,E6,E7,E8,E1,E2,E3,E4h[2:1],,,,,,,,,,,,
{1},
E
