&title=如花落般死去的你
&artist=命运结构_p,诗岸
&first=0.06999999
&lv_5=13+
&des_5=hiyori
&inote_5=
(100){4},,{2}3h[2:1]/4pp7[2:1]*pp7[2:1],
,7h[2:1]/8pp3[2:1]*pp3[2:1],
,3h[2:1]/4V68V24[2:1]*V68V24[2:1],
,7h[2:1]/8V24V68[2:1]*V24V68[2:1],
,5/1pp3pp5pp7pp1[2:3]*qq7qq5qq3qq1[2:3],
{4},,,,,,5h[8:1]/6pp4[2:3],
4h[8:1],
3h[8:1],{8}2-4b[16:1],3,{2}2,
Ch[4:1],{8}3b/8h[8:1],{16}2-5[16:1],8,1,7,2,6,
{8}7h[8:1],{16}1-4[16:1],7,2,6,1,5,{8}6h[8:1],{16}8-3[16:1],6,1,5,8,4,
5,5,3,3,6,6,2,2,{8}6b/1h[8:1],{16}7-4[16:1],1,8,2,7,3,
{8}2h[8:1],{16}8-5[16:1],2,7,3,8,4,{8}3h[8:1],{16}1-6[16:1],3,8,4,1,5,
3,3,7,7,4,4,6,6,{8}7b/4h[8:1],{16}6<1[16:1],4,7,5,6,4,
{8}3h[8:1],{16}5<8[16:1],3,6,4,5,3,{8}2h[8:1],{16}4<7[16:1],2,5,3,4,2,
1,1,8,8,2,2,7,7,{8}2b/5h[8:1],{16}3>8[16:1],5,2,4,3,5,
{8}6h[8:1],{16}4>1[16:1],6,3,5,4,6,{8}7h[8:1],{16}5>2[16:1],7,4,6,5,7,
8,8,3,3,6/2,6/2,5/1,5/1,{8}8/4bV68[8:1],1,{4}4/2,
{8}1/5V31[8:1],8,{4}5/7,{8}5/4qq4pp4[2:1],5,4/6,6,
7,B8,{4}B1,1/7-5[16:1],7/3-1[16:1],
{8}3/8V62[8:1],6,8/5,4,6/3V15[8:1],4,5/3,6,
7/2,B7,6/3,B3,{4}5/4V28[4:1],4/8V64[4:1],
4V26[4:1],6,{8}4V62[4:1],3,4/2V84[4:1],3,
4V68[4:1],2,8V24[4:1],1,{2}2h[2:1],
6pp5[1:1],4qq5[2:1],
{16},,,,,,,,7-5[16:1]/4qq5[4:1],3/8,,2,{4}7,
{16},7,5,6,4,5,{8}3,{16}7qq5<7[16:3]/2pp4>2[16:3],1/8,,6,{4}2,
{16},3,5,4,6,5,{8}7,{16}2/8-3[16:1],7/3-5[16:1],,2,{4}8,
{16}7/1-6[16:1],2/6-4[16:1],,7,{4}1,{16}5/7,6/4,,2/4,{8}3/5,{16}4/5,3/6,
,2,4,3,5,4,6,5,3-6[16:1]/7-2[16:1],2/6,,4,{4}7,
{16},1,5,2,6,3,{8}7,{16}6/3q6[16:3]*q6[16:3],4/5,,6,{4}3,
{16},8,5,7,4,6,3,5,2<7[16:1],3/7q3[16:1],,5,{4}2,
{16}7>2[16:1],6/2p6[16:1],,4,{4}7,{16}7/4h,6/3h,,5/2h,{8}6/3h,{16}5/4h,7/2h,
,8/1h,{8}6/3h,7/5h,4/2h,1b/8-4[16:1],{16}7,2,8,1>4[16:1],1,6-2[16:1],
,1,,6,5-8b[16:1],4,{8}3h[8:1],5b,{16}2>5[16:1],7,3,8,2,1-6-4-8[16:3],
,8/3h[8:1],,1,,2,2,2,{8}3b/5-1[16:1],{16}6,4<7[16:1],5,3,3h[16:1],4,
,2v5[16:1],,3,1>4b[16:1],2,8,8h[16:1],{8}1b,{16}7-4[16:1],1,6,2,7,3-8-6-2[16:3],
,2/6h[8:1],,3,,5,5,5,{8}6b/1-5[16:1],{16}2,7,1,8<5[16:1],8,3-7[16:1],
,8,,3,4-1b[16:1],5,{8}6h[8:1],4b,{16}7<4[16:1],2,6,1,7,8-3-5-1[16:3],
,1/6h[8:1],,8,,7,7,7,{8}5/4>1[16:1],{16}6x,7,{8}8/4-8[16:1],{16}7x,6,
{8}4/5<8[16:1],{16}3x,2,{8}1/5-1[16:1],{16}2x,3,{2}4/5-7-1-3-5[8:5]*-3-1-7-5[8:5],
{8},,,,8/1-5[16:1],{16}3,6>3[16:1],1,7,7h[16:1],6-1[16:1],
,8,,6/4,4<7b[16:1],3,{8}5,4b/2-5[16:1],{16}1,8,2,7-4[16:1],7,3>8[16:1],
,7,{80},,,,,3bx/D3f,A2,D2,A1,D1,{16}A8,5,4/6,7/3,2/8h[16:3],,,1,7/6,5/4,3/2,1/8,
7/2,6/3,5/4,1/3,{8}8/6,6/5,5/4,{16}4/3,5/6,7/2,5/4,6/3,7qq5<7[16:3]/2pp4>2b[16:3],
,8,1,7/2,,,,,{8}1/8-4[16:1],{16}6,3<6[16:1],8,2,2h[16:1],3-8[16:1],
,1,,3/5,5>2b[16:1],6,{8}4,5b/7-4[16:1],{16}8,1v6[16:1],7,3,3h[16:1],1,
,2,7,1-5[16:1]*-5[16:1],5pp6[8:1]*qq4[8:1],2,6,1,{4}B5,5V71[4:1]*V71[4:1],
1V35[4:1]*V35[4:1],5<1[4:1]*<1[4:1],1>5[4:1]*>5[4:1],5V71[4:1]*V31[4:1],
,,{2}5/1qq7qq5qq3qq1[2:3]*pp3pp5pp7pp1[2:3],
,,,4/8-6-4-2-8[2:3]*-2-4-6-8[2:3],
,,,6pp4[2:3]/3qq5[2:3],
,,,7h[1:2]/A8/E8,
D1/E1,A1/E2,
{32},,,,,,,,,,,,,,,,A8/E8,D1/E1,{16}A1/E2,{1},{4},,{8},{4},
E
