&title=カゲロウ
&artist=Stack
&first=0.02
&des=Letty
&lv_5=13+
&inote_5=(119){1},
{8}2>4[8:1],,5qq5[8:3],,2>4[12:1],,,,6>4[8:1],,3pp3[12:4],,6>4[12:1],,,,
{8}2<8[8:1],,6qq6[8:3],,3<5[12:1],,,,7>1[8:1],,3pp3[8:3],,6>4[12:1],,,,
{8}2>4[8:1],,2qq1[4:1],,5>3[8:1],,5qq4[8:2],,1>3[8:1],,1qq8[4:1],,5>3[8:1],,5pp6[8:2],,1>3[12:1],8q4[8:1],1p5[8:1],8<6[12:1],,,1b>4[8:1],,1s5[8:3]/7z3[8:3],,
{4},,,
{8}3>1[12:1],,3pp4[4:1],,1>3[12:1],,1<7[12:1],,1-3[12:1]*-4[8:1],4-7[8:1],,,,,1>4[12:1],,5<7[12:1],,5qq4[4:1],,7<5[12:1],,7>1[12:1],,7q5[8:3],3q1[8:2],,,,,7<5[12:1],,2>4[12:1],,2qq1[4:1],,5>3[12:1],,5pp6[4:1],,5>2[16:3],3>8[16:3],,,,,5>6[8:3],,,,,,4>1[6:1],,,,7<5[12:1],1>3[12:1],8-4[8:1],,,,1b>4[12:1],,
{8}6<8[12:1],,6qq5[4:1],,8<6[12:1],,8>2[12:1],,8-6[12:1]*-5[8:1],5-2[8:1],,,,,8<5[12:1],,4>2[12:1],,4pp5[4:1],,2>4[12:1],,2<8[12:1],,2p4[8:3],6p8[8:2],,,,,2>4[12:1],,7<5[12:1],,7pp8[4:1],,4<6[12:1],,4qq3[4:1],,4<7[16:3],6<1[16:3],,,,,4<3[8:3],,,,,,5<8[6:1],,,3qq2[8:3],5pp6[8:2],,
{4},,,
{8}4>1[8:1],,6>4[12:1],,3qq2[4:1],,4<6[12:1],,4>1[8:1],,6>4[12:1],,3qq2[4:1],,4<6[12:1],,4>1[8:1],,7<5[12:1],,2pp3[4:1],,7qq6[4:1],,,,1>4[6:1]*<6[6:1],,,,,,
{4}5-3[12:1],6p3[8:3],,,2-5[8:1],1qq5[8:3],,,7<4[8:1],8pp3[8:3],,,5<8[8:1],1>4[6:1]*s5[6:1],,,
{8}4>2[12:1],,4pp5[4:1],,1>4[8:1],,1pp5[4:2]*<6[4:1],,,,,,,,,,
{8}5<7[12:1],,5qq4[4:1],,8<6[8:1],,8pp1[4:1],,4<6[12:1],,4qq5[12:4],,8<5[12:1],,,,
{8}4>2[12:1]*<6[12:1],,,,5>3[12:1]*<7[12:1],,,,2-5[12:1],7-4[12:1],,,,3>1[12:1],7<5[12:1],8pp3[8:4],7p4[8:3],,,,,,,,
{8}4>2[12:1],,7<5[12:1],,7pp8[4:1],,4<7[12:1],,4>1[16:3],2<8[16:2],4<7[16:3],6<8[16:2],,,3-5[12:1]*-6[8:1],,3>7[6:1],,3<7[6:1],,,,1s5[6:1],,1bw5[4:2]/8bw4[4:2],,,,,,,,
{8}2>4[12:1]/7<5[12:1],,2qq1[4:1],,4<6[12:1],,4>2[12:1],,7-4[8:1]*-5[12:1],5-1[12:1],,,2<7[12:1],,2-5[12:1]/4-8[12:1],,2<7[12:1],,6pp7[4:1],,2>4[12:1],,2<8[12:1],,6V41[4:1]/2-4[12:1],4-7[8:1],,,,,3b-1[12:1],,3<5[12:1]/6<8[12:1],,3pp2[4:1],,8<5[12:1],,8>3[12:1],,4<7[16:3],6<1[16:3],8>3[16:3],,,,5<8[16:3],7>2[16:3],1qq6[16:7]*>4[16:3],,,,,,4>1[8:1],,4<7[16:3],6<8[16:2],4>1[16:3],2<8[16:2],4<7[8:1],,,,
{8}7<5[12:1]/2>4[12:1],,7pp8[4:1],,5>3[12:1],,5<7[12:1],,2-5[8:1]*-4[12:1],4-8[12:1],,,7>2[12:1],,7-4[12:1]/5-1[12:1],,7>2[12:1],,3qq2[4:1],,7<5[12:1],,7>1[12:1],,3V58[4:1]/7-5[12:1],5-2[8:1],,,,,6b-8[12:1],,6>4[12:1]/3>1[12:1],,6qq7[4:1],,1>4[12:1],,1<6[12:1],,5>2[16:3],3>8[16:3],1<6[16:3],,,,4>1[16:3],2<7[16:3],8pp3[16:7]*<5[16:3],,,,,,4>1[8:1],6qq3[8:5],8pp3[8:4],,
{4},,,
{8}2>4[12:1]/4<6[12:1],,2pp1[4:1],,7<5[12:1],,,,2>4[12:1]/4<6[12:1],,2pp1[4:1],,7qq8[4:1],,,,4>2[12:1],,6pp7[4:1],,2pp6[8:5],,,,1<7[12:1],,,,4>2[12:1]*<6[12:1],,,,
{8}3>1[12:1]/8<6[12:1],,8pp1[4:1],,4<6[12:1],,,,3>1[12:1]/8<6[12:1],,8pp1[4:1],,4pp5[4:1],,,,1>4[8:1],,6<1[8:1],,5pp3[4:2],3qq5[8:3],,,,,,,4>2[12:1]*<6[12:1],,,,
{8}7<5[12:1]/5>3[12:1],,7qq8[4:1],,2>4[12:1],,,,7<5[12:1]/5>3[12:1],,7qq8[4:1],,2pp1[4:1],,,,5<7[12:1],,3qq2[4:1],,7qq3[8:5],,,,8>2[12:1],,,,5<7[12:1]*>3[12:1],,,,
{8}6<8[12:1]/1>3[12:1],,1qq8[4:1],,5>3[12:1],,,,6<8[12:1]/1>3[12:1],,1qq8[4:1],,5qq4[4:1],,,,8<5[8:1],,4>1[16:3],2<7[16:3],8<5[16:3],,,1bs5[6:1],,5w1[8:5],
