&title=Carry Me Away
&artist=Lapix
&first=0
&des=SpicyChili
&lv_4=12
&lv_5=13
&inote_4=(175){1},
{8}1,,2,,4b/5b,,3h[4:1],,
{8}4h[4:1],,1,1,,8qq5[8:3],,8,
{8},2h[8:3],,,5,4,6,3,
{8}2-7[4:1]/7,,,,,,5,4h[2:1],
{8},8-5[8:1],,8,,
{8}1,7h[4:1],,
{8}3,,8,27,,6h[4:1],,3h[4:1],
{8},8h[4:1],,2,3,6,7z3[8:3],,
{8}7/2h[8:3],,,,,,4h[4:1],,
{8}6,6,,45,,2,,,
{8}6h[4:1],,5h[4:1],,8,8s4[2:1],,1,
{8}1,,,,,,,1,
{8}8,1,,6,,24,,57,
{8},13,,68,,,,,
{8}3h[4:1],,4h[4:1],,1,1s5[2:1],,8,
{8}8,,,,,,2,,
{8}68,,13,,57,,3,4,
{8}2/5h[4:3],,,,,,
{16}4b,,,,36,,27,,18,,,,6h[8:1],,5,,
{16},65,,,65,,,,7,,,,14,,36,,
{16}5z1[4:1],,,,,,,,3h[4:1],,,8h[16:1],,,3h[4:1],,
{16},7h[16:1],,,3h[4:1],,,6h[16:1],,,,,4/5-1[8:1],,,,
{16}5,,,,2,1,2,1,2,,3,,4,,,,
{16}7h[4:1],,,,8,,,,6h[4:1],,,,5,,,,
{16}24,,35,,46,,,,18,,,,2,,7,,
{16}4h[16:3]/5,,,3h[16:3],,,2h[16:3],,,1h[16:3],,,8,,,,
{16}27,,,,3,,5,,4,,6,,2,,8,,
{16}17,,,17,,,17,,8,,2,,6,,4,,
{16}5,,,,3h[16:3],,5h[16:1],,,,6h[16:3],,4h[16:1],,,,
{16}5-8[8:1],,,,5,,,,1,,2,,3,,1,,
{16}2,,3,,1,,2,,3,,1,,2,,3,,1,,2,,3,,1,,2,,3,,
{16}1,,2,,3,,1,,2,,3,,1,,2,,3,,1,,7,,65,,2,,34,,5<8[8:1],,4,,
{16},,,,7b,,65,,2b,,34,,8b,,65,,1b,,34,,8b,,35,,1b,,46,,8b-5[8:1],,3,,
{16},,,,2b/1,,5,,7/8b,,4,,2/1b,,6,,7b/8,,3,,6b,,5,,4b,,3,,2h[4:1],,,,
{16}1,,,,78,,,,65,,,,
43,,,,21,,,,8,,7,,6,,5,,4,,3,,2,,1,,5,4,5,4,6,3,6,3,7,2,7,2,8,1,8,,
{16}1b,,,,2b,,,,3b,,,,2b/7b,,,,
{16}5,,,,3h[8:5],,6,,7,,7,,7,,7h[8:3],,,,3,,3>6[8:3],,,,3,,,,5,,5,,4,,,,7,,2,,
{16}3-5[8:1]/6,,,,3,,,,7h[4:1],,3,,2,,,,5h[8:1],,6h[8:1],,7h[8:1],,8h[8:1],,
{16}1v4[8:1],,,,1,,,,6,,6,,5,,7,,3,,3,,4h[4:1],,,,2,,,,5,,4,,
{16}36,,,,7,,,,18,,27,,36,,,,5-1[8:1],,,,5,,,,2-6[8:1],,,,2,,,,
{16}78,,78,,16,,2,,5,,3,,4,,3,,6,,5,,6h[4:1],,,,8h[4:1],,,,7,,7,,1h[4:1],,,,8,,
{16}2,,7,,3,,6,,4,,5,,4,,5,,3h[2:1],,5b,,,5b,,,5b,,3,,3,,4,,2,,6,,
{16}6,,5,,7,,4,,6,,3,,5,,2,,7,,1,,8,,
{16}6h[4:3]/3,,,,,,,,,,,,
{16}1h[2:1],,,,,,,,
{16}6,,,,3,,,,45,,,,2V48[8:3],,,,2,,,,7,,6,,,,2,,,,5,,,,4qq1[1:2],,,,,,
{16}5,,,,,,5,,,,,,5,,,,,,5,,,,,,5,,,,,,5,,,,,,
{16}12,,,,34,,,,56,,,,78,,,,
{16}1,,2,,3,,4,,5,,6,,7,,8,,
{16}4,5,4,5,3,6,3,6,2,7,2,7,1,8,1,8,1,,,,,,,,,,,,
{16}3b/6b,,,,2-5[8:1],,1,,2,,,,7-4[8:1],,8,,7,,,,2>5[8:1],,8,,2,,,,7<4[8:1],,1,,7,,,,
{16}3,,3,,21,,8,,8,,76,,5,,5,,
{16}4h[8:3]/3,,,,2,,2v5[8:1],,,,2,,,,6,,
{16}6h[8:1],,5,,47,,,,3h[8:1],,4,,25,,,,
{16}6,,6,,78,,1,,1,,23,,4,,,,
{16}5/6<3[2:1],,,,6,,,,,,,,,,,,
{16}4h[8:3],,,,7,,7h[4:1],,,,5h[4:1],,,,4h[8:3],,
{16},,,,2,,,,13,,,,56,,57,,
{16},,43,,42,,,,,,6,,5,,4,,
{16}3,,5,,4,,5,,,,1-5[8:1],,,,8-4[8:1],,
{16},,1-3[8:1],,,,8-6[8:1],,,,2h[4:1],,,,5,,
{16}36,,,,1/8h[4:1],,,,2-5[8:1],,,,2,,6,,
{16},,3,,4,,,,65,,6,,65,,6,,
{16}34,,,,12,,,,78,,,,56,,,,75,,46,,3/5pp8[2:1],,,,3,,,,3,,,,3,,,,
{16}7h[8:1],,1,,5,,2h[8:1],,6,,3h[8:1],,8,,4,,7h[8:1],,3,,45,,,,27,,,,
{16}2h[4:1],,8,,7,,36,,5h[4:1],,4,,3,,61,,2h[4:1],,6,,5,,34,,5<5[4:9],,4,,
{1}5,E
&inote_5=(175)
{1},
{8}5h[8:3],,
,4,
2b/7b,,
1-5[8:3],,
,,
,,
,5h[8:3]/7h[8:3],
,,
,2-5[8:1]/4-8[8:1],
,,
,,
8p5[2:1]/5>8[2:1],,
58,,
,,
,,
2h[4:1]/7h[4:1],,
,8-4[8:1],
,8,
,,
2pp5[2:1],,
8,,
7,7,
,6-1[8:1],
,5-2[8:1],
,8z4[4:1],
,,
,,
2h[4:1]/4h[4:1],,
,18,
,57,
,36,
4h[4:1]/5h[4:1],,
,2-5[8:1]/7,
,8-4[8:1]/2,
,1h[8:5]/8,
,,
4,,
{16}5,,,15,
,,62,,
{8}37,3-6[8:1]/8h[16:10],
,3,
,,
5,47,
36,,
2h[8:7]/5,,
{16}6,,,7,
,,8,,
{8},1-5[8:1],
,3-7[8:1],
,8h[8:3],
,,
3,3,
5,5,
1,1,
7,7,
{16}4,5,4,5,
3,6,3,6,
2,7,2,7,
1,8,1,8,
{32}1,2,3,4,
5,6,7,8,
1,2,3,4,
5,6,7,8,
1,2,3,4,
5,6,7,8,
1,2,3,4,
5,6,7,8,
{4}1b>4[8:1],
1b<6[8:1],
1bw5[8:1],
1b,
{16}3h[4:1]/7h[4:1],,,,
,,2,8,
1-5[8:1],7h[8:1],,,
,,6h[8:1],,
,6h[8:1]/5h[8:1],,,
4-1[8:1]/7-4[8:1],,,,
47,,,,
5/1>4[8:1],,73,,
{24}51,6,7,8,,,
8h[8:1]/4,3,2,1,,,{16}7/1h[4:1],,6,,
6,,2/8h[4:1],,
3,,3,,
27,,45,,
6,3,7,2,
8,1,8,1,
2b/7b,,,,
4,4,4,4,
3>8[8:1],,2,,
3/7-4[8:1],,6,,
{8}7/1-5[8:1],2-6[8:1],
1<6[8:1],2,
1,3,
54,72,
8<2[8:3]/1>7[8:3],63,
81,,
,,
1b,8b,
{24}1,2,3,4,
5,6,7,8,
1,2
,37,6,
5,4,3,2,
1,8,7b/3b,,
,,,,
{16}1V35[4:1]/5,,,,
{16}1/5v2[8:1],6,7,8-4[8:1],
,,,8,
,,2,,
3h[8:1]/4h[8:1],,,3h[8:1]/4h[8:1],
,,25,,
6,6,1,7,
7,3,3,,
84,,3,1,
2,5,8,6,
4,1,,28,
,37,,,
46,,2,25,
,7,47,,
3b/6b,,,,
,,,,
8V64[4:1]/4,,,,
{16}8/4v7[8:1],3,2,1-5[8:1],
,,,1,
,,7,,
6h[8:1]/5h[8:1],,,6h[8:1]/5h[8:1],
,,74,,
3,3,8,2,
2,6,6,,
{8}84,7,
51,2,
73,8,
62,1,
{16}8,8,8,8,
8,8,8,8,
8-4[8:1],8,8,8,
8b,,,,
1-3[8:1],,5,,
1-7[8:1],,6,,
1,,5,,
1,2,3,4,
{8}5/6-2[8:1],,
6/8-4[8:1],,
8/1-5[8:1],,
13,2,
{16}8-6[8:1],,4,,
8-2[8:1],,3,,
8,,4,,
8,7,6,5,
{1}4bp2[2:1]/8bp6[2:1],
{4}15,
52,
35,
45,
{8}6,6,
3,3,
7,7,
2,2,
{16}8,1,8,1,
7,2,7,2,
6,3,6,3,
5,4,5,4,
{4}5b<8[8:1],
5b>2[8:1],
5bw1[8:1],
5b,
{8}7-4[8:1]/3v8[8:1],,
,,
26,38,
4h[4:1]/5h[8:1],,
{16}8,7,6,5,
4v7[8:1]/8-3[8:1],,,,
48,,,,
73,,64,,
5pp8[2:1]/2,,,,
2h[8:1],,,2h[8:1],
,,2,,
3-8[8:1],,,,
{8}53,6-1[8:1],
,63,
2v5[8:1]*v4[8:1],,
2,,
2v5[8:1]/6-1[8:1],,
,,
73,61,
5h[4:1]/4h[8:1],,
{16}1,2,3,4,
5-2[8:1]/1v6[8:1],,,,
51,,,,
26,,35,,
{16}4h[4:1]/5,6,7,8,
,,,,
1-5[8:1],,82,,
1,,,,
{4}7h[4:1],
5h[4:1],
3h[4:1],
1h[4:1],
{16}8,,8,,
16,,7,8,
7,,15,,
2,6,3,,
48,,7,3,
6,,28,,
4-1[8:1]/7-2[8:1],,,,
47,,,,
12,,38,,
47,,6,5,
6,,48,,
3,7,2,,
16,,38,,
5,4,5,,
6h[8:1]/3h[8:1],,,7h[8:1]/2h[8:1],
,,81,,
1,8,2,7,
3,6,5,6,
4,7,3,8,
3,4,2,5,
{8}1-5[8:1],1,
6-2[8:1],6,
3-7[8:1],3,
8-4[8:1],8,
{4}1-5[2:1],
,
,
1w5[4:3],
{1},
8b,,,,
{4}45,
46,
47,
48,
{8}3,3,
6,6,
2,2,
7,7,
{16}1,8,2,7,
3,6,4,5,
3,7,2,6,
1,5,8pp2[4:1],4pp6[16:3],
{4},
,
2b/6b,
8b<5[8:1]/4b>1[8:1],
{8}8v3[8:1]/4v7[8:1],,
84,,
7>2[8:1],6,
5,4-8[8:1],
,2-6[8:1]/4,
,2/8qq5[4:1],
,,
1,2,
35,46,
5qq6[4:1]/7pp6[4:1],,
,,
,,
{16}74,,6,5,
7,,84,,
3,4,2,,
1>4[8:1]/5<8[8:1],,,,
{8}1v6[8:1]/5v2[8:1],,
15,,
2<7[8:1],3,
4,5-2[8:1],
,5-8[8:1]/7,
,53,
,2-6[8:1],
8,2,
7-3[8:1],,
27,1-5[8:1],
,17,
8-4[8:1],,
8/3-7[8:1],,
63,5-1[8:1],
,53,
4,48,
{16}3b/7b,,2,,
37,,6,,
4,5,3,6,
2,7,1,,
{8}87,6,
45,3,
2>5[8:1]/1,8,
7,6,
{16}45,,6,5,
6,,3,4,
3,,12,,
38,,2-4[8:1]/6-8[8:1],,
{8},2-6[8:1]/6,
,2/8-4[8:1],
,81,
2,3,
{16}54,,3,4,
3,,6,5,
6,,87,,
61,,73,,
73,,6,4,
5,3,7,2,
8,,27,,
18,,{24}18,27,36,
{16}4b-1[8:1]/5b-8[8:1],,,,
,,,,
{24}1h[8:1]/2,3,4,5,,,
8h[8:1]/7,6,5,4,,,
{4}2/7-4[8:1],
7/1>4[8:1],
1/5<8[8:1],
5/2-7[8:1],
{16}2b/7b,,,,
3,3,8,8,
1-5[8:1],,,,
5,,,,
6h[8:1],,4,4h[8:1],
,7,7h[8:1],,
2>5[8:1],,,,
2,,,,
63,,,,
7,7,4,4,
5-1[8:1],,,1,
,2,,,
2h[8:1],,8,8h[8:1],
,3,3,,
4b-1[8:1]/7bv2[8:1],,,,
4b/7b<8[1:2]*<8[1:2],,,,
{1}
,,
{2},
E
