&title=[異]やっぱり雨は降るんだね
&artist=ツユ
&first=0
&des=sreCP
&lv_7=14!
&inote_7=(130)
{2},
{4}2*-7[0##1.615]/6*-3[0##1.615],2/6,2/6,2$/6$,
{4}3*-8[0##1.615]/7*-4[0##1.615],3/7,3/7,3$/7$,
{4}7*-2[0##1.615]/3*-6[0##1.615],7/3,7/3,7$/3$,
{4}1*-6[0##1.615]/5*-2[0##1.615],1/5,1/5,1$/5$,
{4}2*-7[0##1.153]/6*-3[0##1.153],2/6,2$/6$,2/6,
{4}3*-8[0##1.153]/7*-4[0##1.153],3/7,3$/7$,3/7,
{4}1*-4[0##3.461]/5*-8[0##3.461],1/5,1/5,1/5,
{4}1h[2:1]/5h[2:1],,,1$/5$,
{4}2*-7[0##1.615]/6*-3[0##0.692],2/6$,2/3*-6[0##0.692],2$/3$,
{4}3*-8[0##1.615]/7*-4[0##0.692],3/7$,3/4*-7[0##0.692],3$/4$,
{4}3*-6[0##1.615]/7*-2[0##0.692],3/7$,3/2*-7[0##0.692],3$/2$,
{4}1*-6[0##0.692]/5*-2[0##1.615],1$/5,6*-1[0##0.692]/5,6$/5$,
{4}2*-7[0##0.692]/6*-3[0##0.692],2$/6$,3*-8[0##0.692]/7*-4[0##0.692],3$/7$,
{4}7*-2[0##0.692]/3*-6[0##0.692],7$/3$,1*-6[0##0.692]/5*-2[0##0.692],1$/5$,
{4}5*pp8[0##1.615],1h[4:1],,5qq2[0##1.615],
{4}6h[8:1],,5$`5!-8[0##1.384],
{8},3,4,5$,,1`1!-7[0##1.384],,4/5,4/5,,
{8}1b$,,,,1`1!-5[0##2.115],,28,,
{8}37,,46,,1$/5x,,,,
{8}1`1!-4[0##0.807],6,8,1$,1`1!-6[0##0.807],4,2,1$,
{8}1`1!-5[0##0.807],5,8,1$,1`1!w5[0##1.038],2,3,1,
{8}1b$`1!-7[0##1.038]/1!-3[0##1.038],,,,1$`1!-5[0##0.5769],,1$`1!-4[0##0.5769]/1!-6[0##0.5769],,
{8}1$`1!-5[0##0.5769],,1$,,4/6,3,2h[4:1],,
{8}7,,,B7/B6/B2/B3,,,1,3,
{8}6,8,2,5,,Chf[4:1],,,
{16}4x/1b`1!-6[0##0.5769],,,,1$`1!-4[0##0.5769],,,2,1$`1!-7[0##0.5769],,6,,1$`1!-5[0##0.5769],,1,,
{16}1$w5[0##0.8076],,,,2/8,,1b$,,,,,,7/2,,1,,
{16}8,8,2,2,4,4,5,5,7`7!<4[0##1.038],,8,,1,,2,,
{16}3/7$,,,,,,8`8!qq2[0##1.384],,,,3/4,,5x,,6x,,
{16}8$x,,,,,,4/7,,5,,,6,6h[4:1],,3,,
{16}1`1!p6[0##1.038]*q4[0##1.038],,1,,1,,,,1x$,,,,1`1!-5[0##0.5769],,2,,
{16}1$,,,,8`8!-4[0##0.5769],,7,,8$/1`1!-5[0##0.5769],,2x,2x,1x$/8`8!-4[0##0.5769],,7,,
{16}8$/1,,,,,,,,1/8,,,,7/8,,,,
{16}5x/8b`8!-3[0##0.5769],,,,8$`8!-5[0##0.5769],,,7,8$`8!-2[0##0.5769],,3,,8$`8!-4[0##0.5769],,8,,
{16}8$w4[0##0.8076],,,,7/1,,8b$,,,,,,2/7,,8,,
{16}1,1,7,7,5,5,4,4,2`2!>5[0##1.038],,1,,8,,7,,
{16}2$/6`6!>3[0##0.8076],,7,,8,,6$/1`1!pp7[0##1.384],,,,6/5,,4x,,3x,,
{16}1$x,,,,,,5/2,,4,,,3,3h[8:1],,6,,
{16}8`8!s4[0##1.038]*z4[0##1.038],,56,,34,,21,,8x$,,,,8`8!-4[0##0.5769],,7,,
{16}8$,,,,1`1!-5[0##0.5769],,2,,1$/8`8!-4[0##0.5769],,7x,7x,8x$/1`1!-5[0##0.5769],,2,,
{16}1$/8,,,,Ch[8:5],,B8,,B1,,B7,,B2,,,,
{4}1`1!-5[0##3.923],2`2!-6[0##3.923],3`3!-7[0##3.923],4`4!-8[0##3.923],5`5!-1[0##3.923],6`6!-2[0##3.923],7`7!-3[0##3.923],8`8!-4[0##3.923],
{4}1$,2$,3$,4$,5$,6$,7$,8$,
{4}1*-5[0##3]/8*-4[0##3],2*-6[0##3]/7*-3[0##3],1/8,2/7,1/8,2/7,1$/8$,2$/7$,
{8}58,58,,,14,14,,,
{8}C,,,,,,,,
{1}1x`1!w5[0##2.769],
{16},,,,,,1$,,,,,,,,,,
{16}B6,B3,B5,B4,B6,B3,B5,B4,B6,,B7,,B8,,B1,,
{1}B2,
{16}1/2,,,,,,5,,4,,,6,6,,3/7,,
{16}1,,2,,8,,7,,7,,,,1/8,,1/8,,
{16}2/7,,2h[8:1]/7h[8:1],,,,2/6,,
{32}2/5,,,,2x/5x,1x,8x,7x,6x,5x,4x,3x,2x/5x,6x,7x,8x,
{16}1b`1!-6[0##0.5769],,,,1$`1!-4[0##0.5769],,,2,1$`1!-7[0##0.5769],,6,,1$`1!-5[0##0.5769],,1,,
{16}1$w5[0##0.8076],,,,2/8,,1b$,,,,,,7/2,,1,,
{16}8,8,2,2,4,4,6,6,7`7!-4[0##1.038],,8,,1,,2,,
{16}3/7$,,3,,,,8`8!qq1[0##1.384],,,,3/4,,5x,,6x,,
{16}8$x,,,,,,4/7,,5,,,3,3h[4:1],,6,,
{16}1`1!s5[0##1.038],,1`1!z5[0##0.807],,1,,,,1x$,,,,1`1!-5[0##0.5769],,2,,
{16}1$,,,,7`7!-3[0##0.5769],,8,,7$/1`1!-5[0##0.5769],,8x,8x,1x$/7`7!-3[0##0.5769],,8,,
{16}7$/1,,,,,,1,,1/8,,,7,7/8,,1/6xh[8:1],,
{16}8b`8!-3[0##0.5769],,,,8$`8!-5[0##0.5769],,,7,8$`8!-2[0##0.5769],,3,,8$`8!-4[0##0.5769],,8,,
{16}8$w4[0##0.8076],,,,7/1,,8b$,,,,,,2/7,,8,,
{16}1,1,7,7,5,5,3,3,2`2!-5[0##1.038],,1,,8,,7,,
{16}2$/6`6!v3[0##0.8076],,7,,8,,6$/1`1!pp7[0##1.384],,,,6/5,,4x,,3x,,
{16}1$x,,,,,,5/2,,4,,,3,3h[8:1],,6,,
{16}8/7`8!s4[0##1.038]/7!z3[0##1.038],,56,,34,,21,,8x$/7$x,,,,8`8!-4[0##0.5769],,7,,
{16}8$,,,,2`2!-6[0##0.5769],,1,,2$/8`8!-4[0##0.5769],,1x,1x,8x$/2`2!-6[0##0.5769],,1,,
{16}2$/8,,,,Ch[8:5],,B1,B2,B3,B4,E1,E2,E3,E4,E5,,
{1},
{16}4b/5b,,1,2,3,4,8,7,6,5,4x,3x,4x,3x,4,3,
{16}1x/8x,2,8,2,7,2,7,2,6,2,6,2,5,2,5,2,
{16}4,3,5,2,4,3,6,2,5,3,6,2,5,4,6,2,
{16}7,7,5,5,3,3,1,1,8,8,8,,8,,8,,
{16}1b/8b,,7,1,7,2,8,2,8,1,8,2,7,1,8,2,
{16}6,3,8,1,6,4,8,1,7,3,8,1,6,4,,,
{16}6,5,6,5,7,4,7,4,6,5,6,4,7,4,7,5`5!-1[0##1.615],
{16},,,,,,,,,,,,5$,,,,
{16}2b/7b,,2,6,2,3/6,,3/6,,4,,4,5,4,5,4,
{16}3/6,,6,5,6,5,6,,8,2,1,3,2,,8,,
{16}1/8,,1,6,3,8,1,6,3,8,1,5h[1:0],3,8h[1:0],1,7h[1:0],
{16}2,6h[1:0],2,5h[1:0],,4h[1:0]/3,,2/5,,3/4,,2h[8:1]/5h[8:1],,,,,
{16}6,1,6,1,6,2,6,2,6,3,6,3,6,4,6,4,
{16}6,5,7,8,6,5,7,8,6,5,8,1,6,5,8,1,
{32}2,3,4,5,6,,,,7,6,5,4,3,,,,
1x/4x,2x/5x,3x/6x,4x/7x,5x/8x,,,,,,,,,,,,
{32}1x/4x,2x/5x,3x/6x,4x/7x,5x/8x`8!s4[0##3.7],,,,,,,,,,,,,,,,,,,,1`1!-5[0##0.576],,,,2/8,,,,
{8}1,,1`1!z5[0##1.61],2/8,3/7,4/6,3/7,2/8,
1$/8$,,,,,,,
,E
