&title=群青シグナル
&artist=テヅカ feat. 獅子神レオナ
&first=0
&des=Soyorin
&lv_5=14+
&des_5=Soyorin
&inote_5=
(206){4},,,,,,{2}4h[8:1]/5h[8:1],
{8}6b,5,{4}7,{8}6,5,7,6-2[8:1],
,6<1[8:1],,6,3,3,4,4,
5<1[16:17],5,2,2,3,3,4,4>1[8:1],
,4,,7-4[8:1],{2}7-1[8:1],
{8}3b,3,2,2,1,1,8/7,7-5[8:1]/8-5[8:1],
,8-2[8:1]/7-2[8:1],,8/7-3[8:1],,7/8,{4}4b,
{16}1,2,{8}3,6,6,{16}8,1,{8}2,5,5h[2:1],
{16},,4,3,{8}2,{16}6,7,{8}8/5,5,2,2,
{16}5,6,{8}7,2,2,{16}4,5,{8}6,1,1h[2:1],
{16},,8,7,{8}6,{16}2,3,{8}4/1,1,6,6,
{16}3,4,{8}3,5,5/2,{16}3,4,{8}3,5,2/5-7[8:1],
,5,{4}1>4[8:1],{8}1,{16}5,6,{8}7,1,
3,{16}6,5,{4}6<2[4:1],{16},,3,4,{8}5,5-2[8:1],
,5,6<1[16:3],6,{16}3,4,{8}5,{16}2,3,4,5,
{8}6b-8[8:1],6,{16}1,2,{8}3,5-7[8:1],5,{16}8,1,{8}2h[2:1],
{16},,7,6,{8}5,{16}7,8,{8}1/2,2,4/3-1[8:1],3,
{16}8,7,{8}6,4-2[8:1],4,{16}1,8,{8}7,5,5h[2:1],
{16},,8,1,{8}2,{16}8,7,{8}6/5,5,4/3,3,
2/8,2/8,{16}1,1,{8}1,2/8,{16}1,1,{8}1,2/8,
7/3,7/3,6/4,6/4,5<7[8:1],{16}8,1,2,3,{8}4,
5/8,5/8,7/4,7/4,{16}6,5,{8}6,8/3,8/3,
,7/2,5/3,8/1,6/4,2h[4:1]/7h[4:1],{48},,,,,,,,,,,,1b/8b,
2/7,3/6,5/4qq8[16:23],,,,,,,,,,,,,,,{8}5,,,{4}6,
{8},6,,,{4}7,7,
{2}7qq3[2:3],{8}8,8,1,1,
,2,,4,{4}4,{8}5,5,
{4}5V31[8:5],{8}6,6,7,7,8,8,
,7/2h[4:1],,3h[8:1],4h[8:1],5h[8:1],{4}6p1[2:1],
{8}8h[4:3],,,,,,,3b/7b,
,,,,{4}5-1[8:1],5,
8-6[8:1]/2-4[8:1],2/8,{8}5,6,3,4,
{4}6<3[4:1],3>6[4:1],,4-8[8:1],
4,{8}7,7p3[8:1],,2,{4}2v5[8:1],
{8},,7,7,6/5,6,6/5,6,
{4}6/5,{8}4/3,3,3h[4:1]/4h[8:3],,,3>6[4:1],
,6<3[4:1],,3-7[8:1],,5-1[8:1],{4}5,
{8}2-5[8:1],2,{16},,8,7,{4}6h[4:1],{8}5,5/7,
,2/4,,8/1,2,8/1,{16}7,6,5,4,
{8}3b-1[8:1],3b,5,5,{4}3-1[8:1]/5-7[8:1],3/5,
3-1[8:1],{8}5,5,{4}3-1[8:1]/5-7[8:1],3/5,
{8}6b-8[8:1],6b,4,4,{4}6-8[8:1]/4-2[8:1],6/4,
6-8[8:1],{8}4,4,{4}6-8[8:1]/4-2[8:1],6/4,
{8}1b-3[8:1],1b,7,7,{4}1-3[8:1]/7-5[8:1],1/7,
1-3[8:1],{8}7,7,{4}1-3[8:1]/7-5[8:1],1/7,
4h[4:1],{8}5,4,5,4,4/5,3/6b-8[8:1],
,4/6b-4[8:1],4,2/6b,2,1,{4}1,
{2}8b-4[4:5],1,
{8}6,,,2,,,{4}5,
{1}5pp8[4:3]/4qq1[4:3],
{8},,,7/2,,,{4}3,
3/5,5/7,5/2,5/8,
{8}5/3,5,5/7,5,{16}1/5-1[8:1],2,3,4,{4}5,
{2}8h[2:1]/2h[4:1],{24}2,3,4,5,6,7,8,1,2,3b-8[8:1]*-7[8:1],,,,,,{8}3b-6[8:1]*-5[8:1],
,3b,,,,,{4}2b-5[8:1]/7b-4[8:1],
2/7,{8}1-5[8:1],2-6[8:1],1-7[8:1],2,
,,{4}4v7[8:1]*-1[8:1],4,8v5[8:1]*>3[8:1],
8,{8}4,4,5-1[8:1],6-2[8:1],5-3[8:1],6,
{16},,,,1,8,7,6,{4}5/3,{8}3/4-6[8:1],4,
{4}4/2,{8}2-4[8:1],1-6[8:1],2-5[8:1],1-7[8:1],2-6[8:1],1-5[8:1],
2-4[8:1],1-6[8:1],2-5[8:1],1-7[8:1],2-6[8:1],1,{4}2w6[8:1],
2b,8/3,{8}4>1[8:1],5pp7[8:1],4,5,
,3,{16}7,6,{8}5,2,1,{4}2q6[8:1],
{8}2b>5[8:1],1v6[8:1],2,1,4v1[8:1],5<8[8:1],4-2[8:1],5,
,,{4}8w4[8:1],8,1w5[8:1],
1,{8}7/3,7/3,{4}6/2>5[8:1],{24}2b/6b,7,8,1,2,3,
4,5,6,7,8,1,{4}2b/4h[4:1],{8}6-8[8:1],6,5-2[8:1],5,
{4}1v6[8:1]*v4[8:1],1,{8}8v3[8:1]*v5[8:1],8,,,{4}4-7[8:1]*-1[8:1],
4,{8}8h[4:1],{24},,,,,,1/8,2,3,
4,5,6,7,8,1,2,3,4,5,6,7,{2}8-4[8:1],
{8}2-6[8:1],2,7-3[8:1],7,{4}8<5[8:1]*>3[8:1],8,
{32}1,2,{16}3h[16:3],{32},,,,7,6,{16}5h[16:3],{32},,,,2,3,{16}4h[16:3],,,{8}6-1[8:1],6,
2,2,{16}3,4,{8}3,2/5,7/1,{16}5,4,6,5,
{8}7h[8:1],{16}3,4,{8}2h[8:1],8,{16}1-4[8:1],8,{8}2-6[8:1],1,2,
{16},,5,4,{8}5,{16}3,4,{8}3,5/2,{4}5/2,
{16}6-8[8:1],5,7,5,{4}6-4[8:1],6,{16}8,8,{8}1,
{4}7/2>5[8:1],2/6-1[8:1],{8}6/3,{16}4,5,6,7,{8}8,
5-7[8:1],2,5-3[8:1],8,5-7[8:1],{16}8,1,{8}2/5,2-5[8:1],
,2/8-4[8:1],7,8/3-8[8:1],2-6[8:1],3,{4}2,
{8}7b/4b,{16}6,5,{4}6-1[8:1],{8}3-8[8:1],3,5-8[8:1],5,
4-2[8:1],4,5-7[8:1],5,4-1[8:1],4,5w1[8:1],5,
{4}5,{16}3,4,{8}3,5/2,1/7-4[8:1],,7/2>5[8:1],
,2/8q4[8:1],,8/6-2[8:1],,6/7,{4}7,
8/1,{8}8/7,7/8,7/6,7/6,6/5,6/5,
5/4,5/4,4/3,4/3,{4}2/1,{16}3<1[1:1]/8<2[1:1],4/7,{8}5/6,
{1}8b/3b,
{8},,,,6,6,3-8[8:1],3,
{4}3/7-4[8:1],7/2-5[8:1],2/6-1[8:1],6/4pp1[4:3],
,,,,7b-4[8:1]/2b-5[8:1],
7/2,{8}8-4[8:1],7-3[8:1],8-2[8:1],7,
,,{4}5v2[8:1]*-8[8:1],5,1v4[8:1]*<6[8:1],
1,{8}5,5,4-8[8:1],3-7[8:1],4-6[8:1],3,
{16},,,,8,1,2,3,{4}4/6,{8}6/5-3[8:1],5,
{4}5/7,{8}7-5[8:1],8-3[8:1],7-4[8:1],8-2[8:1],7-3[8:1],8-4[8:1],
7-5[8:1],8-3[8:1],7-4[8:1],8-2[8:1],7-3[8:1],8,{4}7w3[8:1],
7b,1/6,{8}5<8[8:1],4qq2[8:1],5,4,
,6,{16}2,3,{8}4,7,8,{4}7p3[8:1],
{8}7b<4[8:1],8v3[8:1],7,8,5v8[8:1],4>1[8:1],5-7[8:1],4,
,,{4}1w5[8:1],1,8w4[8:1],
8,{8}2/6,2/6,{4}3/7<4[8:1],{24}7b/3b,2,1,8,7,6,
5,4,3,2,1,8,{4}7b/5h[4:1],{8}3-1[8:1],3,4-7[8:1],4,
{4}8>3[8:1]*<5[8:1],8,{8}4-1[8:1],4,,5,
,,{4}7/3,5/1,{8}2,{24}8/1,7,6,
5,4,3,2,1,8,7,6,5,4,3,2,{8}1-5[8:1],,,8,
7-3[8:1],7,2-6[8:1],2,{4}1>4[8:1]*<6[8:1],1,
{32}8,7,{16}6h[16:3],{32},,,,2,3,{16}4h[16:3],{32},,,,7,6,{16}5h[16:3],,,{8}3-8[8:1],3,
7,7,{16}6,5,{8}6,7/4,2/8,{16}4,5,3,4,
{8}2h[8:1],{16}6,5,{8}7h[8:1],1,{16}8-5[8:1],1,{8}7-3[8:1],8,7,
{16},,4,5,{8}4,{16}6,5,{8}6,4/7,{4}7-1[8:1]/4-1[8:1],
4b/7b,5-8[8:1]/3-8[8:1],5b/3b,4-1[8:1]/6-1[8:1],
4b/6b,3-8[8:1]/6-1[8:1],3b/6b,7<1[2:1]/2>8[2:1],
2b/7b,{8},,,,6/3,6/3,
{16},,4,5,{8}4,3,3/5,2,{4}2/6,
{8}7/1,{16}6-8[8:1],4,{8}5,6/2,{16}3-5[8:1],1,{8}2,3/7-1[8:1],7,
{16},,3,4,{8}5,{16}8/1,7/2,{8}6/3,4/5,4,5/6,
6,{16}3-1[8:1],5,{8}4,3/7,{16}6-4[8:1],8,{8}7,6/2-8[8:1],2,
{16},,6,5,{8}4,{16}1/8,2/7,{4}3/6h[4:1],{16}3,4,{8}3,
7/1,7/1,{16}8,8,{8}8,7/1,{16}8,8,{8}8,7/1,
2/6,2/6,3/5,3/5,4>2[8:1],{16}1,8,7,6,{8}5,
4/1,4/1,2/5,2/5,{16}3,4,{8}3,1/6,1/6,
,2/7,4/6,1/8,3/5,7h[4:1]/2h[4:1],{48},,,,,,,,,,,,8b/1b,
7/2,6/3,4/5pp1[16:11]*qq1[16:11],{1},{4},{16},,{24},{2}5h[8:1]/4h[8:1],
{8}3b,4,{4}2,{8}3,4,2,3-7[8:1],
,3>8[8:1],,3,6,6,5,5,
4>8[16:17],4,7,7,6,6,5,5<8[8:1],
,5,,2-5[8:1],{2}2-8[8:1],
{8}6b,6,7,7,8,8,1/2,2-4[8:1]/1-4[8:1],
,1-7[8:1]/2-7[8:1],,1/2-6[8:1],,2/1,{4}5b,
E
