&title=RE;DIEIN
&artist=HAYAKO
&first=-0.5199998
&lv_5=14+
&des_5=MistyGlandor & GlowingPagasus
&inote_5=
(222){4},,,,{8}4h[8:1],
6,,4/7,,{16}4/7,3/6,{4}5/2h[4:1],
6h[4:1],3h[4:1],{8}5h[8:1],3,,2/5,
,{16}5/2,6/3,{4}4/7h[4:1],3h[4:1],{8}6,{16}5,4,
{8}5h[8:1],3,,2/7,,{16}1/8,2/7,{4}6/3h[4:1],
6h[4:1],4h[4:1],{8}5pp1[8:3],1,2,3,
{4}4-2-5-8[8:3],{8}4h,8h,7h,6h,{4}5xh,
{8}3,3/5,,2/6,,{24}2/6h[8:1],3,4,{4}5h[4:1],
8h[4:1],3h[4:1],{8}6,6/4,,7/3,
,{24}7/3h[8:1],6,5,{4}4h[4:1],1h[4:1],6h[4:1],
{8}4,4/7,,3/8,,{24}2,3,4,{4}6h[8:1]/5h[4:1],
8w4[8:1],A8,{8},Ch[8:5],{2},{4},
{2},{8}2-5[8:1],
6,{4}2-4-8[4:1],2/8,{8}7-4[8:1],3,
{4}7-5-1[4:1],7/1,{8}3-7[8:1],7,{4}3-5-1[4:1],
3/8<1b[8:3],8x,,4pp2[8:3],
{8}4,{4},{8}8-4[8:1],1-5[8:1],8,{4}1,
{8},2-6[8:1],7,2,8-4[8:1],1-5[8:1],8-6[8:1],1-3[8:1],
8<1[2:1]*-5-2[16:7],1,{4}8x,{2},{8}7-4[8:1],
4-6-1[4:1],{4}7,2,{8}2-5[8:1],5-3-8[4:1],
{4}2,7,{8}6-1[8:1],1-7-4[4:1],{4}6,
2w6[8:1],2x,,5qq7[8:3],
{8}5,{4},{8}1-5[8:1],8-4[8:1],1,{4}8,
{8},7-3[8:1],2,7,1-5[8:1],8-4[8:1],1-3[8:1],8-6[8:1],
1>8b[8:3],8,{4}1x,{2},{8}3,
{16}3,4,{8}3,{16}3,4,{8}3,5/2,4h[16:1]/3h[16:1],4h[16:1]/3h[16:1],
4h[16:1]/3h[16:1],4h[16:1]/3h[16:1],{48}4/3,E4,B3,E3,D3,A2,B2,D2,E2,A1,B1,D1,{8}6,{16}6,5,{8}6,{16}6,5,
{8}6,7/4,6h[16:1]/5h[16:1],6h[16:1]/5h[16:1],6h[16:1]/5h[16:1],5h[16:1]/6h[16:1],{48}6/5,E6,B6,E7,D7,A7,B7,D8,E8,A8,B8,D1,
{8}4,5,{24}4,5,4,5,4,5,{8}4h[4:1],5,{4}5b,
{8}4bh[16:1]/5bh[16:1],2bh[16:1]/1bh[16:1],6bh[16:1]/7bh[16:1],3bh[16:1]/4bh[16:1],B5/E6,E4/B4,E8/B8,E2/B1,
5h,4h,3h,6h,5h,4h,{4}6/3h,
{8}6xh[8:9],C,,B2/B3/E3,,E4/B4,E3,E2/B1,
,4xh[8:5],,B6/E7/B7,{4}C,5,
{48}6<3b[8:5],3>6[48:29],{6},{48}6,5,4,3,{4},,{16},,,{48},{4}1>8[1:1],
E4,E6/B6,C,
B3/E4,E6,5<4[1:1],E8,
E2/B2,C,E8/B7,E2,
{8}1>4z8[4:11],8,{4}1,{1},{16}7,
6,{8}5s1b[0##1.4865],{1},,,,,{4},,,{8}3-5[8:1],
5-7[8:1],7-1[8:1],1-3[8:1],
{4},{8}8<6[8:1],6>4[8:1],4>2[8:1],2<8[8:1],{4},{8}4,
4/6-1[8:1],,6,,{16}4,3,{8}2-5[8:1],5V38[4:1],
{4}2,6,{8}5,5/3-8[8:1],,3,
,{16}5,6,{8}7-4[8:1],4V61[4:1],{4}7,2,
{8}3,3/5-1[8:1],,5,,{16}4,3,{8}2>5[8:1],5V38[4:1],
{4}2,6,{8}6V42[4:1],4,2V86[4:1],8,
{4},{8}1>5[4:1],3,5<1[4:1],7,{4},{8}5,
5<2[8:3],,5,,E2/B2,{4}B3/E4,
4-8[8:1],4/7,{8}7,2>8[8:3],,2,
,E6/B6,B7/E8,{24}E1,B1,B2,{8}E3,{24}E5,B5,B6,{8}E7,{32}A3,D3,A2,D2,
{8}6/A1,6,6/3,3,3/5,5,5/2,2,
2/6,6,{4}3b/6bh[16:1],{24}4,5h,6,7h,8,1,2h,3,4h,5,6h,7,
{16}8h,1,2h,3,{12}4h,5,6h,7,8h,1,5h[4:1]/2h,{6},{4}Ch[6:1],
{2},{4}7/4h[4:1],
8h[4:1],3,{24}4x/7-1[8:1],3,2,1,{12},{8}7-4[8:1],3-1[8:1],
7,3,{24}5x,6,7,8/4,{12},{8}4-2[8:1],8-4b[8:1],4>5[2:1],8,
{4}1bxh[2:1],{2},{4}2b/Cf,
6b/Cf,3b/Cf,{24}5/2-8[8:1],6,7,8,{12},{8}2-5[8:1],6-8[8:1],
2,6,{24}4x,3,2,1/5,{12},{8}5-7[8:1],1-5b[8:1],5<4[2:1],1,
{4}8bxh[6:1],{16}D8,A7,D7,A6,D6,A5,D5,A4,{4}D4/2-5[8:1],
2/8-4[8:1],8/4,{16}3,5,3,5,2,4,2,4,
1-5b[8:1],3,1,3,{4}1b>8[8:3],{8}1xh,{4},{8}4,
{16}4,6,4,6,5,7,5,7,6-2b[8:1],8,6,8,{4}6b>8[8:3],
6xh,4xh[4:1],{8},{16}4/8,3/7,2/6,1/5,8,7,
6,5,4,3,2/6,7,8,1,2,3,4,5,6/1,2,3,4,
{8}5/7b-2[4:1],{4},{8}3b-6[8:1],{4},8b-4b[8:1],
{8}8,{16}3h,2h,{4}1h,{24}1x/6-4[8:1],2,3,4,{12},{8}6-1[8:1],2-4[8:1],
6,2,{24}8x,7,6,5/1,{12},{8}1-3[8:1],5-1b[8:1],1>8[2:1],5,
{4}4bxh[2:1],{2},{4}4b/Cf,
8b/Cf,2b/Cf,{24}8x/3-5[8:1],7,6,5,{12},{8}3-8[8:1],7-5[8:1],
3,7,{24}1x,2,3,4/8,{12},{8}8-6[8:1],4-8b[8:1],8<1[2:1],4,
{4}5bxh[2:1],{2},{4}1x/8bV64[16:3]*-5[8:1],
8b-3[8:1]*V24[16:3],8b,{8}6,7,{4}8,
{32}8h,1,{16},,,{8}4,3,{4}2,{32}2h,1,{16},,,{8}4,
5,{4}6,{32}8,7h,{16},,,{24}4,5h,{4},{12},,{4}5,
4xh[4:3],{8}E7,B6,
B5,E5,{4},{8}6xh[8:3],B3,B4,E5,
{1}6xpp4[8:9]/5xpp4[8:9],
{2},{4}3,E6/B6,
B2/B1,5,E6/A6/D6,E2/A1/D2,
6,B7/E7/A7,A3/B3/E4,5<1[4:1],
{16}5/1,2,3,4,{4}5,{8}8h[2:1],7,6,5,
4h[2:1],3,2,1,8h[2:1],7,6,5,
{1}4qq3q7>8b[1:1]*pp5p1<8[1:1],
{2},(230){4}2/1b-4[8:1],8/1b-6[8:1],
2/1b>4[8:1],8/1b<6[8:1],2/1b-4b[8:1],8/1b-6b[8:1],
2/1b>4b[8:1],8/1b<7b[8:1],1/2b-5[8:1],2/6b-8[8:1],
6/4,{8}1/4,{24}3,2,3,{4}2-4[8:1],2/6-1[8:1],
6/5-2[8:1],5/8-5[8:1],8/1-3[8:1],1/4<7[8:1],
4/2x-5[8:1],2/8-4[8:1],8/4,{24}3bx,E3,B2,B1,{12},{24}7bx,
E7,B6,B5,{12},{48}1bx,D2,A2,D3,A3,D4,{8},8b-5[8:1],8,8/3b-1[8:1],3,
3/4b-7[8:1],4,4/8b>3[8:1],8,{4}8,{8}7b,2b,
8b-4[8:1],8,8/2b-6[8:1],2,2/7bp3[8:1],7,7/1bq5[8:1],1,
{4}1,{8}6b,2b,4xh[16:1]/5xh[16:1],2xh[16:1]/1xh[16:1],6xh[16:1]/7xh[16:1],3xh[16:1]/4xh[16:1],
5bx,4bx,1xh[16:1]/8xh[16:1],4xh[16:1]/5xh[16:1],6xh[16:1]/7xh[16:1],3xh[16:1]/2xh[16:1],5bx,4bx,
{24}8bx,7x,6x,5x,{12}4x,{24}1bxh,8xh,7xh,6xh,{12}5xh,{24}2bx,1x,8x,7x,{12}6x,{48}2h,{24},{48}3h,{24},{16}7/4h,6,
5/1h,2h,8/3h,7,6,1h,5,3h,(222){2}7,
{4},{24}B3/E4,B2,{1},{4},{12},,{24}B7/E8,
B6,{1},{4},{12},,{24}E2/B2,
E6/B6,{3},,{8}4h,
5h,4h,5h,3h,4h,{12}2/5h,3,4,
8/5,1,2,3/5b,{6},{8}8/1,1-6[8:1]/8-3[8:1],,1/8,
,4xV28-6b[2:1]/5x<3[2:1],{4}A5f/A4f,{2},{8}4/5,
4-8[8:1]/5-1[8:1],,4/5,,7x-2-5[2:1]/3x-6-1b[2:1],{4}A7f/A3f,
{2},{8}4x/8x,8x-5[8:1]/4xv1[8:1],,4/8,
,7-5-8-4b[2:1]/3-1-4-8[2:1],{4}A7f/A3f,{2},{8}2x/6x,
6x-2[8:1]/2x-6[8:1],,2/6,,8bxh[16:5]/4bxh[16:5],{4},6xh[16:3]/2xh[16:3],
7x/Ch[4:1],(230){8}8<6[8:1],4,8x,{24}4,3,2,
1,5,4,3,2,1,{8}8x-4[8:1],4x,{4}8x,{24}1,2,3,4,5,6,
{8}7,5x,5x,{24}3,2,1,8,4,3,2,1,8,{8}7-3[8:1],4x,
7x,{24}4,5,6,7,8,1,2,3,4,{8}5/7,B2/E2,B6,E4/B4,
E8/B7,C,E4/B3,(222)E6,E2,B7,B3,C,
E5,1xqq4[8:7]/2xq4[8:7],{1},{4},{8}5-1-7[8:3]*-1-3[8:3],
5,{4},,{8},3b/7b,
2bh/6bh,7b/4b,2bh/8bh,{24}1,2/8,7/3,
{8}4/6,(230)5x,{4}2/5x-1[8:1],5/2-6[8:1],2/7-4[8:1],
7/4,{24}2,3,4,5,8,7,6,5,,{8}2,{4}6/2-5[8:1],
2/7-3[8:1],7/4>1[8:1],4/8,{24}7,6,5,4,1,2,
3,4,,{8}8,{4}4/8-6[8:1],8-4[8:1]/3-1[8:1],8/3-5[8:1],
3x,{24}8,7,6,5,8,1,2,3,,{8}7,{4}7-4b[8:1],
7/3,{24}1,2,3,4,1,8,7,6,5h[6:1],3,2,1,{8},{32}5/1,2/6,3/7,4/8,
{12}1/5,{24}B7/B6/Ch[24:1],B2/B3,
