&title=井戸の猫
&artist=きくお feat. 蒼咲雫
&first=-0.12
&des=
&des_5=Kaenbyou Rin
&lv_5=13+
&inote_5=(135){4},{8},,1,2h[4:1],,,3,
4h[4:1],,,5,6h[4:1],,,{4}7h[4:1],
8,{8}1/8,8h[4:1]/2h[4:1],,,8/3,
8h[4:1]/4h[4:1],,,8/5,8h[4:1]/6h[4:1],,,{4}1h[4:1],
3,{8}1/7,6h[4:1]/2h[4:1],,,7/3,
6h[4:1]/4h[4:1],,,7/5,8h[4:1]/4h[4:1],,,{4}3h[4:1],
5,{8}6/2,3h[4:1]/7h[4:1],,,4/8,
1/5h[4:3],,,2,2-7[8:1],,,,,,7/5,
{16}2,3,{8}4h[8:1],6,5/7,
{16}2,3,{8}4h[8:1],6,7/5,{16}2,3,{8}4h[8:1],6,5-1[8:1]/7-5[8:1],
,,,2/4,{16}7,6,{8}5h[8:1],3,4/2,
{16}7,6,{8}5h[8:1],3,2/4,{16}7,6,{8}5h[8:1],3,4-1[8:1]/2-5[8:1],
,,,6/8,{16}3,4,{8}5h[8:1],7,6/8,
{16}3,4,{8}5h[8:1],7,6/8,{16}3,4,{8}5h[8:1],7,8<5[8:1]/6-2[8:1],
,,,3/1,{16}6,5,{8}4h[8:1],2,1/3-7[8:1],
,,,8,{16}8,6,,6,{8}4,5h[4:1]/4h[4:1],
,,,7/2,{16}3/8-4[8:1],7/2,{8}6/1,7,7,
{16}3/8-4[8:1],7/2,{8}6/1,7,7,{16}3/8-4[8:1],7/2,{8}6/1,7,7,
3,5,,3/6,{16}7/4-8[8:1],3/6,{8}2/5,3,3,
{16}7/4-8[8:1],3/6,{8}2/5,3,3,{16}7/4-8[8:1],3/6,{8}2/5,3,3p7[8:1]*>8[8:1],
,,,6,{16}7/3,2/6,{8}1/5,6,6,
{16}7/3,2/6,{8}1/5,6,6,{16}7/3,6/2,{8}1/5,6,5h[8:1]/7h[8:1],
,4h[8:1]/2h[8:1],,3,{16}6/2,7/3,{8}8/4,3,2v5[8:1]/8v5[8:1],
,,,7,{16}7,1,,1,{8}3,{32}8b,1,2,3,
4,5,6,7,8,1,2,3,4,5,6,7,{8}8h[4:1],,6,,4/6h[8:3],
,5,3,4/1V35[4:1],{16},6,{8}1,7,8-3[8:1],
,8/5h[8:1],,1,{16}1,3,,3,{8}8,7/5,
6/4,{16}7/5-8[8:1],6/4,{4}5/3,{8}4,3/1,1/8,6h[4:1]/8<4[16:3],
,,,1h[4:1],,3,,5/3h[8:3],
,4,6,8/4h[8:1],{16},7,{8}5,8,1<6[8:1]/6-2[8:1],
,,,5b,{16}5,3,,3,{8}1,3b,
{16}3,5,,5,{8}7,8/6,{16}1,7,,7,{8}5h[8:3],2h[4:1],
,,,8/6,{16}5,7,{8}4,8/6,8/6,
{16}5,7,{8}4,8/6,8/6,{16}5,7,{8}4,8/6,8/6-2[8:1],
,,,1/3,{16}4,2,{8}5,1/3,1/3,
{16}4,2,{8}5,1/3,1/3,{16}4,2,{8}5,1/3,3/1<6[8:1],
,,,8/5,{16}5,6,{8}5,8/5,8/5,
{16}5,2,{8}5,8/5,8/5,{16}5,6,{8}5,8/5,8-3[8:1]/5-2[8:1],
,,,1<6[4:1],,6-2[4:1],,2>5[4:1],
,5pp1[2:1],{4}5h[8:5],{8},,,,,,,1/7h[4:1],
{16}3,4,{8}5h[8:1],8,1/7h[4:1],
{16}3,4,{8}5h[8:1],8,1/7h[4:1],{16}3,4,{8}5h[8:1],8,7/1-4[8:1],
{32},,,,,,,,,,,,7,6,{16}5,3,3,{32}7,6,{16}5,3,3,{32}7,6,{16}5,
3,3,{32}7,6,{16}5,3,3,{32}7,6,{16}5,3,3,{8}7,4h[8:1],5v2[8:1],
,,,4/3h[4:1],{16}6,7,{8}8h[8:1],2,4/3h[4:1],
{16}6,7,{8}8h[8:1],2,4/3h[4:1],{16}6,7,{8}8h[8:1],2,3h[4:1]/4h[4:1],
,,,5<1[4:1],,1p5[4:1],,5v2[4:1],
,2p7[4:3],{4}2h[8:7],{8},,,,,,,7/5,
6/4,5/3,7/5,6/4,
5/3,7/5,6/4,5/3-8[8:1],,4-1[8:1],,5-2[8:1],
,8,,1/3,2/8,7/1,3/1,2/8,
7/1,3/1,2/8,1/7-3[8:1],,8<3[16:3],,1V75[8:1],
,,,4/3,4/5,5/6,3/4,4/5,
5/6,3/4,4/5,5/6>3[8:1],,7-3[8:1],,8-5[8:1],
,1,,8/7,1/8,1/2,8/7,1/8,
1/2,8/7,1/8,1/2v5[8:1],,1>1[2:1],,,,,,2h[4:1],
,,3/8,7h[4:1]/4h[4:1],
{16},,,,6,6,{8}5h[16:3],{16},3h[16:3],,,{8}1h[8:1],4h[16:3],
{16},6h[16:3],,,{8}8,8b<5[8:1]/6bp2[8:1],,,,3bq7[8:1]/1b>4[8:1],
,,,8h[32:15]/6h[32:15],{32},,,,,,,,,,,,5b,4,3,2,
1,8,7,6,5,4,3,2,1,8,7,6,{8}5,{16}6,5,{8}6,7/4,7/4,
{16}6,5,{8}6,8/4,4/8,{16}6,5,{8}6,4/1<6[8:1],1/4v1[8:1],
,,,5,{16}3,4,{8}3,2/5,2/5,
{16}3,4,{8}3,1/5,5/1,{16}3,4,{8}3,5/8V63[4:1],5/8,
,,,8,{16}2,1,{8}2,8/3,8/3,
{16}2,1,{8}2,4/8,4/8,{16}2,1,{8}2-4[8:1],5/8<5[8:1],2-6[8:1],
8-4[8:1],2,8,1,{16}7,8,{8}7,6/1V73[4:1],1/6-4[8:1],
,,,6h[16:3],{16}5,5,,4/7,{8}7/4,{32}3b,4,5,6,
7,8,1,2,3/7b,6,5,4,3,2,1,8,{8}7/2,{16}2/7,3/8,{8}1/4,3/8,2/7,
{16}2/7,3/8,{8}1/4,3/8,2/7,{16}2/7,3/8,{8}1/4,3/8v5[8:1],7/2-4[8:1],
,,,7/2,{16}7/2,6/1,{8}8/5,6/1,7/2,
{16}7/2,6/1,{8}8/5,6/1,7/2,{16}7/2,6/1,{8}8/5,1/6V41[4:1],7/2,
,,,8/5,{16}8/5,7/4,{8}6/3,7/4,8/5,
{16}8/5,7/4,{8}6/3,4/7,8/5,{16}8/5,7/4,{8}6/3-5[8:1],4/7-1[8:1],3-8[8:1],
7-4[8:1],3,7,1,{16}4/1,5/2,{8}6/3,2/5V74[4:1],4/1-4[8:1],
,,,3h[16:3],{16}5,5,,6/2,{8}6/2,{32}3b,4,5,6,
7,8,1,2,3/7b,6,5,4,3,2,1,8,{8}7-3[8:1],{16},4,,,{8}2,1-5[8:1],
{16},4,,,{8}6,8-6[8:1],{16},4,,,{8}2,1-3[8:1],
{16},4,,,{8}6,5/7h[16:3],{16},4,,,{8}2,4/1h[16:3],
{16},6,,,{8}7,6/8h[16:3],{16},4,,,{8}2,1-5[8:1]/4-7[8:1],
,,,6<1[8:1],{16},5,,,{8}4,3<6[8:1],
{16},2,,,{8}1,8>3[8:1],{16},7,,,{8}6,5-2[8:1],
{16},6,,,{8}7,8h[8:3],{16},1,,,{8}2,3h[8:3],
{16},4,,,{8}5,6h[8:3],{16},7,,,{8}8,1-4[8:1]/6-3[8:1],
,,,,1,2h[4:1],,,3,
4h[4:1],,,5,6h[4:1],,,{4}7h[4:1],
8,{8}1/8,8h[4:1]/2h[4:1],,,8/3,
8h[4:1]/4h[4:1],,,8/5,8h[4:1]/6h[4:1],,,{4}1h[4:1],
3,{8}2/8,7h[4:1]/5h[4:1],,,6/1,
4h[4:1]/3h[4:1],,,5/4,5h[4:1]/7h[4:1],,,{4}8h[4:1],
3,{8}7/1,8h[4:1]/3h[4:1],,,5/2,
6h[4:1]/4h[4:1],,,5/4,4V26[8:3]/5V73[8:3],
E
