&title=Hall of Mirrors
&artist=sta
&first=0.07
&lv_5=12+
&des_5=Statue
&inote_5=
(147){4},,,,,,,,,,,,,,,,,,,,{1}3h[4:3]/4h[4:3],
3h[4:3]/5h[4:3],
4h[4:3]/6h[4:3],
6h[4:3]/5h[4:3],
{6}6/4,{12}3,4,{24},{8}3/4,5h[8:1],4,6h[8:1],5,
{6}7/4,{12}3,4,{24},{8}3/4,5h[8:1],4,3h[8:1],4,
{6}5/3,{12}6,5,{24},{8}5/6,4h[8:1],5,3h[8:1],4,
{6}2/5,{12}6,5,{24},{8}6/5,4h[8:1],5,6h[8:1],5,
{6}4/7,{12}3,4,{24},{8}4/3,5h[8:1],4,6h[8:1],5,
{6}4/7,{12}3,4,{24},{8}4/3,5h[8:1],4,3h[8:1],4,
{4}3h[8:3],5h[8:1],,3/4,
6/5,4/5h[8:3],{16}6,7,8,1,2/6,3/7,4/8,5/1,
{4},E3,E7,{8}6h[8:1],3,
6h[8:1],5,6h[8:1],4,6h[8:1],5,{4}6h[4:1],
,E7,E3,{8}3h[8:1],6,
3h[8:1],4,3h[8:1],5,3h[8:1],4,{4}3h[4:1],
,6/3,{24}4,5,{12}4,{24},,,,,{8}4,
5,6,7,8,1,2,{4}3,
{8}3/4h[8:1],1,4/3h[8:1],1,3/4h[8:1],1,4/3h[8:1],1,
3/4h[8:1],1,4/3h[8:1],1,3/4h[8:1],1-5[8:1],4/3h[8:1],1,
{4},E3,{8}B7,E7,3h[8:1],6,
3h[8:1],4,3h[8:1],5,3h[8:1],4,{4}3h[4:1],
,E7,E3,{8}6h[8:1],3,
6h[8:1],5,6h[8:1],4,6h[8:1],5,{4}6h[4:1],
,3/6,{8}5/4,{4},{8}5,
4,3,2,1,8,7,{4}6,
{8}6/5h[8:1],8,5/6h[8:1],8,6/5h[8:1],8,5/6h[8:1],8,
6/5h[8:1],8,5/6h[8:1],8,6/5h[8:1],8-4[8:1],5/6h[8:1],8,
7,{4},{8}3/4,,6/5,,3-6[4:1],
,6-4-1[8:3],,8,{4},6h[4:1],
{8}1,{4},{8}2/6,,3/7,,8-5[4:1],
,8,{4}1,{2}2,
{4}3/4,{8}3,4,,5/6,,4,
{4}5,{8}3h[8:1],4,{4},3,
3/5,{8}3,4,,4/5,,6,
5,6,,3h[8:3]/5h[8:3],{2},{8}2/6,
{4},{8}7/4-1[4:1],,1-6[4:1],,6-3[4:1],
,7,,5h[8:1],{4}2,3/4,
{8}7/3,{4},{8}2/5-8[4:1],,8-3[4:1],,3-6[4:1],
,2,,4h[8:1],{4}7,6/5,
3/7,{8}5h[8:1],4,,2/6,,4h[8:1],
{16}5,{8},{16}4/5,{8},3/6,{4},{8}4,5,
{4}3,{8}4,5,,3h[4:1]/6h[4:1],{4},{8}5/7,
4/5,2/4,1/8,{4}2/7,3b/6b,
{6}3/8,{12}2,1-4[8:1],{24},{8}7/8,1,7h[8:1],3h[8:1],8h[8:1],
{6}2>5[8:1],{12}1,2,{24},{8}8h[8:3],,,,7,
{6}6/1,{12}7,8-5[8:1],{24},{8}2/1,8,2h[8:1],6h[8:1],1h[8:1],
{6}7<4[8:1],{12}8,7,{24},{8}1h[8:3],,,,3<6[8:1],
{4}6>3[8:1],7h[8:1],,{8}3/4,2/5,
{4}1/6<1[4:1],{8}1qq5[12:5],2,{4},3,
4,{8}2,1pp5[8:3],,1,6,7,
{4}8qq4[8:3],{8}8/1,2,{2}3,
{8}7b/2b,{4},{8}3/5,,4/7,5,6h[8:1],
{4}5,{8}6/5,4/5,{4}3/4,1s5[4:1],
{8}1,8,,6h[4:1],,5,{4}6,
3-1-5[4:1],{8}5-2[8:1],6,,,,6>3[8:1],
{4}3<6[8:1],2h[8:1],,{8}6/5,7/4,
{4}8/3>8[4:1],{8}8pp4[16:7],7,{4},6,
5,{8}7,8qq4[8:3],,8,3,2,
{4}1pp5[8:3],{8}1/8,7,{2}6,
{24}8,7,6,1,2,3,7,6,5,2,3,4,{4}5/8,C,
{24}8,7,6,2,3,4,7,6,5,1,2,3,8,7,6,2,3,4,7,6,5,1,2,3,
{4}4h[4:7],{2},{4}D7,
D3,E7,E3,C,
{24}8,7,6,1,2,3,7,6,5,2,3,4,{8}5h[4:1],{4},{8}6h[8:1],
,2/6h,7/3h,8/4h,1/5h,4/8h,{4}3/7h[8:1],
{8}3h[8:1],C,6h[8:1],C,1h[8:1],C,7h[8:1],C,
4h[8:1],C,5h[8:1],C,2h[8:1],C,7h[8:1],C,
{24}8x,7,6,5,2x,3,4,5,7x,6,5,4,1x,2,3,4,7x,6,5,4,2x,3,4,5,
E1,B8,B7,E7,E3,B3,B4,E5,A7,E7,E6,A5,A2,E3,E4,A4,A8,E8,E7,A6,A2,E3,E4,A4,
8x,7,6,5,2x,3,4,5,8x,7,6,5,2x,3,4,5,8x,7,6,5,1x,2,3,4,
A7,E7,E6,A5,A8,B8,B4,A4,A1,B1,B5,A5,A2,E3,E4,A4,{12},{4}1x-6-4-7[8:7],
{1},{4}3h[4:1],
6h[4:1],3h[2:1],{8}7,6,
{4},5h[8:3],{8},,,4h[8:1],
{4}6h[4:1],{8}4h[8:1],5h[8:1],{2}4h,
{1}6qq4<8[4:39]/2qq8>4[4:39],
E
