&title=Crossmythos Rhapsodia
&artist=Acotto vs Potwi
&first=0.065
&des=zAz
&lv_5=14+
&inote_5=(198)
{4},,,{16}5,4,3,2,1x/5x,,3,4,,4x,5,6,3x/7x,,6,5,,5,4,3,2x/6x,,,3x/4x,,,4x/5x,,{4}5x/6x,4x/7x<1-6-3-8-5-2-7[4:13],
{1}7/4h[8:29],,,{2},{24},,,D7,D8,D1,D2,D3,D4,{8}D5,5hx[16:3]/2hx[8:1],,4/3,3/4,4h[16:1]/3h[8:1],,4h[16:3]/3h[8:1],,4/3,{24}E5,E6,E7,{8}3h[16:1],3h[16:1],4h[8:1],{16}3,5h[8:1],,3,6h[16:5],,,,5h[8:1],,6h[16:3],,5h[8:1],,6h[8:1],,{24}E5,E4,E3,{8}6h[16:1],6h[16:1],{4}4/7,Cf/B5/B6/B4/B3,{2},
{4}1/8,{16}2,4,3,4,2,,5,3,,6,4,,5/7,,4,6,,3,5,,{12}1<4[8:3],2,3,{4},2x,{16}3,4,3,4,2-5[8:1]/5,,,{32},6x,{8}2,7,{32}4/6h[16:3],3x,,,{16},2h[16:3],,,4h[8:1],,{4}1h[4:1],{16}4,5,6,7,2/8,,3,7,,4,6,3,5,2,,4,5,6,7,8,2,3,4,5,8,7,,4,3,2,1,8,{24}E7,E6,E5,1x,2x,3x,{16}6h[4:1],,,5,,,3/4,,,4/5,,,6,5,6,5,4h[16:3]/7x,,,6h[16:3],,,5h[8:1],,{4}8-4[8:1],1,
{4}3b/7b,{16}2-4[8:1],8x,7,6,2,,7,6,5,,{16}3h[4:1],,,,5hx[8:1],4h[4:1],,,,6hx[8:1],5h[8:1],,6b,,{4}4b/7b,{16}7-5[8:1],1x,2,3,7-3b[8:1],,{24}2bx-5[8:1],3bx,4bx,{4}7,{16}8,,2,1,2,1,{4}3hx[4:1],{16}5,4,6,5,7,4,8,3,1,2,{8}8x,7x/3,5x/4,{16}3,4,2,5,1,6,8,7,{8}1x,2x/6,4x/5,6,7/8,1,2/5,{16}2,3,4,5,{8}8,7/4,3,2/5,{16}2,3,4,5,{4},
{48}D8/D6,E6`E8,B5`B8,Cf,B4`B1,E4`E2,{8}2x<2[1:1]/3hx[8:11],{4},,,,,{16}1,8,7,6,{1}5h[4:5]/1b-7-2-6-3-5-1[2:3],,{16}5,1,2,6,2x,3x,7,6,3,8,7,4,7x,6x,3,4,{24}8,7,6,2,3,4,7,6,5,1,2,3,{4}4b/8b<4[4:1],{16}4,3,2,1,
{16}8bx,,,2bx/6bx,,2,3,4,5bx/1bx,,7,6,8,1,2,3,4bx/8bx,,{24}E7,B6,B5,{16}3pp8[4:1],2,1x,,{4}3bx,{16}1,2,3,4,5/7,,{24}6,5,6,{16}4,7,3,8,2h[16:3],,,3h[16:3],,,4,,3h[16:3]/5,,,2h[16:3],,,1,,{4}2-6[8:1]/8>3[8:1],,{16}5xq2[8:1],,2x<3[8:3],3x,{4}4x,Cf,{16}8,1,2,3,4xp7[8:1],,7x>6[8:3],6x,{4}5x,Cf,{16},,7,8,7,,{24}E1,E2,E3,6x,,,A2,A3,A4,{16}7x,,,1/2,,,{4}3-7[8:1]/4-8[8:1],{1}3bqq5<2[8:5]/4b,
{8},5h[4:1]/6,,{16}7h[16:3],,,6h[16:3],,,5,,4/6,,{24}3,4,3,{16}5-1b[8:1],2,{8}6h[4:1],,,{16}8,7,6,5,4/2,,{24}3,4,3,{16}5,2,6,1,7h[16:3],,,6h[16:3],,,5,,6x/4b>1[8:1],,,5,4b-7[8:1]*-8[8:1],,6,,{8}4b,,1/2,3/8,{16}4h[16:3]/7,,,2h[16:3],,,8h[16:3],,,6h[16:3],,,{8}4v1[8:1],3/5,2>5[8:1],{16},2x,,,8z4[8:9],,{32}7x,6x,{16}5x-8b[16:15],,,{4},{1},
{3}3h[6:1]/E1,2h[6:1]/E8,1h[6:1]/E7,{12}6b,5,6,2,6,5,6,1,6,5,6,3,6,5,6,4,6,5,6,3h[12:4],{48}A7,D8,A8,D1,A1,D2,A2,D3,,D4,A4,D5,A5,D6,A6,,{12}3,4,3,7,3,4,3,8,3,4,2,5,1h[6:1],,8,2h[6:1],,1,3,8,4,7,5,6,2,4x,1,5hx[6:1],,3,6,2,7h[6:1],,1s5[8:1],8,{3},{12}7,6,3,2,1,8,7,6,4x/5x,,2,1,2,,4x/5x,,7,8,7,,1`8,,2,1,8,7,{8}5/6,4/5,3/4,2/3,
{4}1<3[4:5]/2hb[2:1],,,2h[4:1],,1,8>6[4:5],,,6,7,8,1V75-3[1:1],,{8}3,2,{4}2h[4:1],,1,8V24-6b[1:1],,,1v7[4:1],,,
{8}8h[8:3],,,1,2,3,4/7-3-6[8:3],,,,,,1-5-2[8:3],,,5,6,7,{16}8h[16:3],,,1h[16:3],,,2h[16:3],,,3,,,2x/4h[16:3],,,5h[16:3],,,6V47-3[8:3],,{4}4b,,{16}5h[16:3],,,4h[16:3],,,3V52-6[8:3],,{4}5b,,{16}7h[8:1],,,1h[8:1]/E6f,,,8h[8:1]/Cf,,,2h[8:1]/E4f,,,{8}3qq5pp5[1:1],4,{1}5b,{4},{16}8h[8:1],4,3,2,5,4,3,6,5,4,7,6,5/1x,8,7,6,5,4,3/7,2,1,5,4,3,2,1,2,1,2,1,2,1,2,1,2,1,
{4}2b>7[4:1],,,5`E3`B3,6,7,5/7,{12}6,5,6,{8}4,5,{2}7/3h[2:1],{16}A4,E5,E6,A6,C/B1,,,B2,B3,E4,E8/D8,,,E7,B6,B5,D3/E3,,A4,D5,A5,D6,A6,D7,A7,D8,A8,D1,{4}A1/Ch[4:9],{1},,
{4}B6/B7/B2/B3/E3/E7,{16}6x/5x,4,3,2,{8}1h[4:1]/7,6,4,2/1,3h[4:1],4,6,8h[4:1],4,2,7h[4:1]/8,1,2,3,4h[4:1],8,2,3/4,4/5,5/6,5/7,4/6,3/5,2/4,{16}5b,6,7,8,2,3,4,5,8x,,{24}2,1,2,{16}8x,,1/7,6,5,4,7,6,5,4,{8}1,2/8,3/7,6,4h[8:1],5,3h[8:1],{16}4,3,4,3,{8}5h[8:1],2,6h[8:1],1,{16}2,3,4,5h[4:1],{4},{24}4x/8x,3x/7x,2x/6x,{8}1b-4-7[2:1]/5b-8-3[2:1],{4},,,,
{8}1b/8b,,2,4,{16}3,4,5,6,3-6b[8:1],,,,,,7,7,1b,,4/6,,{12}5b,4,3,5b,4,3,5b,4,3,{16}4x,5,6,7,{8}2b-5[8:1]/8,1,{16}2-6[8:1],8x,7x,6x,2,,7,7,1b,,4/6,,5x,4,3,2,1h[8:1],,7h[8:1],,8b,,4/6,,5,4,3,2,1b,,5/7,,6,5,4,3,{6}2b,3b,4b,{16}5b,3,5,3,6b,2,6,2,7b,1,7,1,8b,2,8,2,7b,3,7,6x,2,6,5x,1,5,4x,8,4,{8}3x/7x,4x/8x,
{12}1b/5b,,2,3,4,6,2,3,4,6,,4/8,7,6,5,8,7,6,{4}5-1[8:1],4/5,{16}4,8,7,3,7x,6x,2,3,6,1,2,5,2x,3x,6,5,{24}1,2,3
,7,6,5,2,3,4,8,7,6,{4}5b/1b>5[4:1],{16}5,6,7,8,
{4}1bV75[4:1],{16},4,3,2,{4}1b-5[8:1],{16}5,6,7,8,{4}1pp6b[8:3],,,{16}3,4,3,4,2b/5b,,,6,,8,7,8,1b/6b,,2,3,5,6,7,8,1/2h[16:3],,,3,,,4b/8b,,{4}2b/6b,
{16}8,7,6,5,4/2,,{24}3,4,3,{16}5,2,6,1,7h[16:3],,,6h[16:3],,,5,,6h[16:3]/4,,,7h[16:3],,,8,,{4}7-3b[8:1]/1,{16},,2-5[8:1],2,1,2,,8,,7,,6,6,4,,5,,3,4,3,2/5x`6hx[8:1],,,7,,,8,,1`7hx[8:1],,,,,,2,1,2,,{24}E1,E8,E7,3x,,,A7,A6,A5,{16}2x,,,8/7,,,{4}6-2[8:1]/5-1[8:1],{1}6bpp4>7[8:5]b/5b,
{8},4h[4:1]/3,,{16}2h[16:3],,,3h[16:3],,,4,,{12}6b,5b,7b,2b<4[4:1],1b,3b,Cf,,,{16}1,2,3,4,5/7,,{24}6,5,6,{16}4,7,3,8,2h[16:3],,,3h[16:3],,,4,,3x/5b<8[8:1],,,4,5b-2[8:1]*-1[8:1],,3,,{8}5b,,8/7,6/1,{16}5h[16:3]/2,,,7h[16:3],,,1h[16:3],,,3h[16:3],,,{8}5,4/6,{16}7,5,,6h[16:3],,,2,,2/6,3/7,4/8,5/1,,,{24}E5,E4,E3,{8}7hbx[4:1],,,{24}D4,D3,D2,{16}6hbx[8:1],,,8x,,1,5h[8:1],,2h[4:1],,,,,4,5,6,3/7h[16:3],,,8,,,1/6,,4/5h[8:1],,3,4h[8:1],,2,3h[8:1],,{6}1b,2b/8b,3b/7b,
{24}6b,5,4,3,2,1,8/4h,7,6,5,4,3,2/6h,1,8,7,6,5,4/8h,3,2,1,8,7,6/2h,5,4,3,2,1,{4}8/4h[4:1],{12}7,6,5,
{16}4,5,6,7,8bx/4bx,,6,5,,5x,4,3,6x/2x,,3,4,,4,5,6,7bx/3bx,,2,1,,1x,8,7,2x/6x,,7,8,,8,1,2,3bx/7bx,,6,5,,2,3,4,5,6,3bx/7bx,,3bx,4,,4,5bx,,6bx,5,4,3,2bx/6bx,5,4,3,{24}1bx,8,7,6,5,4,{16}8x,7x,6x,5x,
{8}4/8,{16}4b/8b,,,1/2,1b/2b,,3b/8b,3/8,,,7bx,6bx,5bx,4bx,,1,{24}8,8,8,8,8,8,8,8,8,{32}1x,2,3,4,5,6,1x,2,3,4,5,6,{16}1x,8,2,4,3,5,4,6,5,7,1x,8,2/7,,{32}6qq1b[4:9],5,4,3,{8},{1}2bqq5[1:2]/6b,,{2},4hb[4:1],,
