&title=ヒトカケラの勇気
&artist=藍井エイル
&first=0.047
&des=Kiss me, Say good bye
&wholebpm=176.000
&lv_5=13+
&des_5=
&inote_5=(176)
{16},,,,
{16},,,,
,,,,
,,,,
,,,,
{16},,,,
,,,,
4,5,3,5,
2,3,4,5,
{16}7h[4:1],,,,
8,,8>3[8:1],,
,,5<8[8:1],,
,,2h[4:1],,
{16},,1,,
8,,7-4[8:1],,
,,4,,
3,,2,,
{16}2h[4:1],,,,
1,,1<6[8:1],,
,,4-1[8:1],,
,,4-7[8:1],,
{16},,4-8[8:1],,
,,4,,
,,6,,
26,,,,
{16}2,,3h[4:1],,
5,,6,,
7h[4:1],,5,,
4,,38,,
{16}2,,3h[4:1],,
5,,6,,
7h[4:1],,5,,
3,,28,,
{16}1,,2h[4:1],,
4,,6,,
17,,2,4,
3,,18,,
{16},,27,,
27,,27,,
,,,,
,,,,
{16}6h[8:1]/5,,,,
6h[8:1],,,,
6h[8:1],,,,
6h[8:1],,4,,
{16}4h[8:1],,,,
4h[8:1],,,,
4h[8:1],,,,
4h[8:1],,,,
{16}5h[8:1],,,,
5h[8:1],,,,
5h[8:1],,,,
5h[8:1],,2,,
{16}2h[8:1],,,,
3h[8:1],,,,
4h[8:1],,,,
5h[8:1],,,,
{16}7h[8:1]/8,,,,
7h[8:1],,,,
7h[8:1],,,,
7h[8:1],,4,,
{16}4h[8:1],,,,
4h[8:1],,,,
4h[8:1],,,,
4h[8:1],,,,
{16}5h[8:1],,,,
5h[8:1],,,,
5h[8:1],,,,
5h[8:1],,3,,
{16}3h[8:1],,,,
4h[8:1],,,,
5h[8:1],,,,
6h[8:1],,,,
{16}8h[4:1]/7,,,,
5,,5-1[8:1],,
,,4,,
4,,,,
{16}1h[4:1]/2,,,,
3,,3<6[8:1],,
,,8,,
8,,,,
{16}1/7-4[8:1],,,,
3,,3-8[8:1],,
,,6<4[4:1],,
,,1b,,
{16},,,,2h[4:1],,,,5h[4:1],,,,4,,3,,
{16}2-5[8:1],,,,
6h[4:1],,,,8h[4:1],,,,7,,6,,
{16}5h[4:1],,,,
1,,1<6[4:1],,
,,6>3[4:1],,
,,3>8[4:1],,
{16},,6,,
6h[4:3],,,,
5,,,,
5,,,,
{16}5,,,,
56,,,,
4,7,4,7,
3,5,3,5,
{16}1<6[8:1],,,,
7,,5,,
4-8[8:1],,,,
3b,,,,
{16}1<6[8:1],,,,
7,,5,,
4-1[8:1]*-7[8:1],,,,
4b,,,,
{16}2<7[8:1]/6,,,,
26,,5-8[8:1],,
,,4b-1[8:1]/5b,,
,,2b-6[8:1]/4b,,
{16},,2b/7b-3[8:1],,
,,5b-1[8:1]/7b,,
,,5b/8b-4[8:1],,
,,1b/8b,,
{16},,3,,
4,,52,,
6,,5,,
47,,3,,
{16}5,,6,,
5,,47,,
3,,4,,
25,,6,,
{16}17,,1,,
1,,38,,
8,,8,,
26,,15,,
{16}24,,35,,
4,6,5,7,
3,5,4,6,
{32}2,3,4,5,6,7,8,1,
{16}2bv4[8:1]/5b-1[8:1],,,,
2<5[4:1]/5,,,,
3b,,,,
2<6[8:1],,6<2[8:1],,
{16},,,,
4,,4pp7[3:1],,
,,8,,
1,,2,,
{16}3<6[8:1],,,,
3/8-4[8:1],,,,
8/5-2[8:1],,,,
7,,7-4[8:1],,
{16},,78,,
2pp4[6:1]*-7[8:1],,,,
2,,,,
8b,,,,
{16}2-5[8:1],,6,,
2,,8-6[8:1]*-4[8:1],,
,,8b,,
,,3,,
{16}3-7[8:1],,7,,
3,,5-2[8:1]*-8[8:1],,
,,5b,,
,,1,,
{16}1-5[8:1],,5,,
1,,7>2[8:1],,
,,5<4[3:1],,
,,8b,,
{16},,,,
8,,26,,
,,7,5,
6,4,5,3,
{16}4-8[8:1]*-1[8:1],,,,
4<2[4:1],,,,
7,,,,
6qq2[3:1],,7h[4:1],,
{16},,,,
8,,8pp6[3:1],,
,,2,,
3,,4,,
{16}5>2[8:1],,,,
5/8<5[8:1],,,,
8/1-5[8:1],,,,
7,,7h[4:1],,
{16},,8,,
2-5[8:1]/5-1[8:1],,,,
2/5,,,,
3b/7b,,,,
{16}6-1[8:1],,2,,
6,,4-2[8:1]*-8[8:1],,
,,4b,,
,,7,,
{16}7-3[8:1],,3,,
7,,1-6[8:1]*-4[8:1],,
,,1b,,
,,5,,
{16}5-1[8:1],,1,,
5,,3<6[8:1],,
,,73,,
,,{32}1b,8,7,6,
5,4,3,2,{16}1,,
5,,37,,
,,2,4,
3,5,4,6,
{16}5-8[8:1]*-2[8:1],,,,
5>7[4:1],,,,
3,,,,
4pp8[3:1],,3h[4:1],,
{16},,,,
2,,2-5[8:1],,
,,28,,
7,,6,,
{16}5-1[8:1],,,,
5/6<4[4:1],,,,
26,,,,
8,,8-4[8:1],,
{16},,6,,
6,7,8,1,
2,3,4,5,
6b/2b,,,,
{16}3,5,3,5,3,5,3,5,4,6,4,6,4,6,4,6,
{16}3,7,3,7,2,5,2,5,1,7,1,7,3,4,3,4,
{16}25,,16,,
72,,3/8>3[8:1]*<5[8:1],,
,,8w4[8:1],,
,,8,,
{16},,26,,
35,,46,,
37,,28,,
1-5[4:3]/7,,2h[8:9]/6,,
{16},,,,
,,,,
,,,,
,,,,
{16},,,,
,,,,
5,4,6,4,
7,6,5,4,
{16}2h[4:1],,,,
1,,1<6[8:1],,
,,4>1[8:1],,
,,7h[4:1],,
{16},,8,,
1,,2-5[8:1],,
,,5,,
6,,7,,
{16}7h[4:1],,,,
8,,8>3[8:1],,
,,5<8[8:1],,
,,5>2[8:1],,
{16},,5w1[8:1],,
,,5,,
,,37,,
73,,,,
{16}7,,6h[4:1],,
4,,3,,
2h[4:1],,4,,
5,,61,,
{16}7,,6h[4:1],,
4,,3,,
2h[4:1],,4,,
6,,71,,
{16}8,,7h[4:1],,
5,,3,,
82,,7,5,
6,,1h[8:1]/8h[8:1],,
{16},,35,,
,,1h[8:1]/7h[8:1],,
,,8,2,
7,3,4bqq5[1:4]/6bpp5[1:4],,
{4},,,,,,,,,,,,,,,,,,,,,
