&title=幸せになれる隠しコマンドがあるらしい
&artist=うたたP
&first=0
&lv_6=1
&des_6=
&inote_6=
(142){4},
E
&lv_7=16
&des_7=aycp
&inote_7=
(142){4},,,,6/Ch[4:7],
3,6,3,
6,3,6,3,
2/3/A2/A3,4/5/A5/A4,8/1/A1/A8,2/3/A2/A3,
2/3/A2/A3,5/4/A4/A5,2/3/A3/A2,2/3/A2/A3,
8/1/A1/A8,8/1/A1/A8,5/4/A4/A5,5/4/A4/A5,
7/6/A7/A6,2/3/A2/A3,7/6/A7/A6,2/3/A2/A3,
2/3/A2/A3,5/4/A4/A5,8/1/A1/A8,2/3/A2/A3,
2/3/A3/A2,5/4/A4/A5,2/3/A2/A3,2/3/A2/A3,
8/1/A1/A8,8/1/A1/A8,5/4/A4/A5,4/5/A5/A4,
7/6/A7/A6,2/3/A3/A2,7/6/A7/A6,2/3/A2/A3,
2/3/A2/A3,5/4/A4/A5,8/1/A1/A8,2/3/A2/A3,
2/3/A2/A3,4/5/A5/A4,2/3/A2/A3,2/3/A2/A3,
8/1/A1/A8,8/1/A1/A8,4/5/A5/A4,5/4/A5/A4,
{1}Ch[8:7],
{4}1/8/A8/A1,7/2/A2/A7,6/3/A3/A6,5/4/A4/A5,
2/3/A2/A3/Ch[8:1],5/4/A4/A5/Ch[8:1],8/1/A1/A8/Ch[8:1],2/3/A2/A3/Ch[8:1],
2/3/A2/A3/Ch[8:1],4/5/A4/A5/Ch[8:1],2/3/A2/A3/Ch[8:1],2/3/A2/A3/Ch[8:1],
8/1/A1/A8/Ch[8:1],8/1/A1/A8/Ch[8:1],5/4/A4/A5/Ch[8:1],5/4/A4/A5/Ch[8:1],
7/6/A7/A6/Ch[8:1],2/3/A2/A3/Ch[8:1],7/6/A7/A6/Ch[8:1],2/3/A2/A3/Ch[8:1],
2/3/A2/A3/Ch[8:1],5/4/A4/A5/Ch[8:1],1/8/A1/A8/Ch[8:1],2/3/A2/A3/Ch[8:1],
2/3/A2/A3/Ch[8:1],5/4/A4/A5/Ch[8:1],2/3/A2/A3/Ch[8:1],2/3/A2/A3/Ch[8:1],
1/8/A1/A8/Ch[8:1],1/8/A1/A8/Ch[8:1],5/4/A4/A5/Ch[8:1],5/4/A4/A5/Ch[8:1],
7/6/A7/A6/Ch[8:1],7/C,2/C,6/C,
3/2/A2/A3/Ch[8:1],4/5/A5/A4/Ch[8:1],E8/B7/B6/E6/B5/B4/B8/B1/C,E1/B8/B6/E6/B1/B3/E4/C/B7/B2,
1x-5[0##0.2113]/8x-4[0##0.2113]/4x-8[0##0.2113]/5x-1[0##0.2113],1xv4[0##0.2113]/7xv4[0##0.2113]/4xv7[0##0.2113]*v1[0##0.2113],8x-5>4[0##0.2113]/4x<5-8[0##0.2113],2x<8>1-5[0##0.2113]/6x>4<5-1[0##0.2113],
1/8/A8/A1/Ch[8:1],1/8/A8/A1/Ch[8:1],5/4/A4/A5/Ch[8:1],E1/B8/B6/E6/B1/B3/E4/C/B7/B2,
8xv5[0##0.2113]/2xv5[0##0.2113]/5xv2[0##0.2113]*v8[0##0.2113],8x-5>4[0##0.2113]/4x<5-8[0##0.2113],7x>1<8-4[0##0.2113]/3x<5>4-8[0##0.2113],E1/B8/B6/E6/B1/B3/E4/C/B7/B2,
2/3/A2/A3/Ch[8:1],5/4/A4/A5/Ch[8:1],1/8/A8/A1/Ch[8:1],2/3/A2/A3/Ch[8:1],
B8/E1/B1/B6/E6/B3/E4/C/B7/B2,2x-6[0##0.2113]/3x-7[0##0.2113]/7x-3[0##0.2113]/6x-2[0##0.2113],1xv4[0##0.2113]/7xv4[0##0.2113]/4xv7[0##0.2113]*v1[0##0.2113],2x<8>1-5[0##0.2113]/6x>4<5-1[0##0.2113],
1/8/A8/A1/Ch[8:1],1/8/A8/A1/Ch[8:1],5/4/A4/A5/Ch[8:1],4/5/A5/A4/Ch[8:1],
{1}2b/6b/A2f/A6f,
{8}4/A3h[4:1],{24}7,6,5,{8}A4h[4:1],{24}8,1,2,{8}3,3/4,2/5,1/6,
7/8,7,6/8,2,1/A3h[4:1],{24}A7,A6,A5,{8}A4,2/5,
6/8,1,1/3,7,8/A6h[4:1],{24}A2,A3,A4,{8}A5,4/7,
1/3,8,6/8,2,1/3h[4:1],{24}7,6,5,{8}4,2/5,
7/8,6,1/2,3,7/8,{16}5,5h[16:3],,,{8}4b,
7/8,1,1/3,7,8/6h[4:1],{24}2,3,4,{8}5,4/7,
1/3,8,6/8,2,1/3h[4:1],{24}7,6,5,{8}4,2/5,
6/8,1,1/3,7,8/6h[4:1],{24}2,3,4,{8}5,4/7,
5/6h[8:3],7,8,1,{16}1x-3[16:1],1x-4[16:1],1x-5[16:1],1x-6[16:1],,,,,1,
1,,2/8,,3/7,,4/6h[16:3],,,{8}5,{4}4/7,
{16}8,8,,1/7,,2/6,,5/3h[16:3],,,{8}4,{4}2/5,
{16}4,4,,3/5,,2/6,,1/7h[16:3],,,{8}8,{4}1/6,
{16}5,5,,4/6,,3/7,,2/8w4[8:1],,,,,,,,,{4}C,
C,C,C,
C,C,{2}Ch[2:1]/1>5>1[0##0.8451],
{4},C,C,C,
C,{8}C,Ch[2:1]/8<4<8[0##0.8451],,,,,{2}6h[4:1]/7h[4:1]/Ch[4:1],
3h[4:1]/2h[4:1]/Ch[4:1],
8h[4:1]/1h[4:1]/Ch[4:1],4h[4:1]/5h[4:1]/Ch[4:1],
{4}5,6/4,7/3,8<5[8:1]/2>5[8:1],
{8},,,,4/5h[4:1],{24}1,2,3,{8}4h[4:1],{24}8,7,6,
{8}5,5/4,{4}3/6,6h[8:1]/Ch[8:1],2h[8:1]/Ch[8:1],
7h[8:1]/Ch[8:1],3h[8:1]/Ch[8:1],2/3/A2/A3/Ch[8:1],5/4/A5/A4/Cfh[8:1],
{8}1/8/A8/A1/Ch[8:1],8x/1x,8x-5>4[0##0.2113]/4x<5-8[0##0.2113],2x/3x,{4}A7/A6/Ch[8:1],A2/A3/Ch[8:1],
A1/D8/Ch[8:1],A5/A4/Ch[8:1],{8}1x/8x,1x/8x,4x/5x,4x/5x,
2x/3x,7x/6x,{4}8xv5[0##0.2113]/2xv5[0##0.2113]/5xv2[0##0.2113]*v8[0##0.2113],2v5[8:1]/5v2[8:1],2>4[8:1]/5<1[8:1],
2/5,3-7[8:1]/7-3[8:1],{2}3<6[8:1]/7>2[8:1],
{8}2/7,3/6,4z8[8:1]/5-8[8:1],3/6,{4}4-7[8:1]/5-2[8:1],4/5,
3-6[8:1]/7-2[8:1],3/7,{8}1-4[32:3]/4-1[32:3],5-8[32:3]/8-5[32:3],,,,,{4}4b/8b,
{2}1h[4:3]/5h[4:3],
{8},,,2/6,{2}3h[8:5]/7h[8:5],
{8},,2/6,1/5,{2}4h[2:1]/8h[2:1],
{8},1/5,2/6,3/7,{2}4h[2:1]/8h[2:1],
{8},4/8,{32}8x/A8,7x/A7,6x/A6,5x/A5,8x/A8,1x/A1,2x/A2,3x/A3,{8}8bx,5,1,6,
2,7,3,4/8,1b/5b,5,1,6,
2,7,3,4/8,1b/5b,5,1,2/6,
3b/7b,8,4,1/5,2b/6b,3/7,4/8,1/5,
{16}1x-3[16:1],1x-4[16:1],1x-5[16:1],1x-6[16:1],,,,,{8}4x,3x,2x/4x,6x,
5x/7xh[4:1],{24}3x,2x,1x,{8}8x,1x/6x,2x/4x,5x,5x/7x,3x,
4x/2xh[4:1],{24}6x,7x,8x,{8}1x,3x/8x,5x/7x,4x,2x/4x,6x,
5x/7xh[4:1],{24}3x,2x,1x,{8}8x,1x/6x,3x/4x,1x,5x/6x,8x,
3x/4x,{16}1x,1xh[16:3],,,{8}8bx,3x/4x,5x,5x/7x,3x,
4x/2xh[4:1],{24}6x,7x,8x,{8}1x,3x/8x,5x/7x,4x,2x/4x,6x,
5x/7xh[4:1],{24}3x,2x,1x,{8}8x,1x/6x,2x/4x,5x,5x/7x,3x,
4x/2xh[4:1],{24}6x,7x,8x,{8}1x,3x/8x,1x/2xh[8:3],4x,6x,8x,
{16}8b-2[16:1],8b-3[16:1],8b-4[16:1],8b-5[16:1],,,,,{4}2b/3b/A2f/A3f/D3f/Ch[8:1],4b/5b/A4f/A5f/D5f/Ch[8:1],
1b/8b/D1f/A8f/A1f/Ch[8:1],2b/3b/A2f/D3f/A3f/Ch[8:1],2b/3b/A2f/D3f/A3f/Ch[8:1],5b/4b/A4f/D5f/A5f/Ch[8:1],
2b/3b/A2f/D3f/A3f/Ch[8:1],2b/3b/A2f/D3f/A3f/Ch[8:1],1b/8b/A1f/D1f/A8f/Ch[8:1],1b/8b/A1f/D1f/A8f/Ch[8:1],
4b/5b/A4f/D5f/A5f/Ch[8:1],4b/5b/A4f/D5f/A5f/Ch[8:1],6b/7b/A7f/D7f/A6f/Ch[8:1],2b/3b/A2f/D3f/A3f/Ch[8:1],
7b/6b/A7f/D7f/A6f/Ch[8:1],2b/3b/A2f/D3f/A3f/Ch[8:1],2b/3b/A2f/D3f/A3f/Ch[8:1],5b/4b/A4f/D5f/A5f/Ch[8:1],
8b/1b/A1f/D1f/A8f/Ch[8:1],2b/3b/A2f/D3f/A3f/Ch[8:1],2b/3b/A2f/D3f/A3f/Ch[8:1],5b/4b/A4f/D5f/A5f/Ch[8:1],
2b/3b/A2f/D3f/A3f/Ch[8:1],2b/3b/A2f/D3f/A3f/Ch[8:1],1b/8b/A1f/D1f/A8f/Ch[8:1],1b/8b/A1f/D1f/A8f/Ch[8:1],
5b/4b/A4f/D5f/A5f/Ch[8:1],5b/4b/A4f/D5f/A5f/Ch[8:1],7b/6b/A7f/A6f/D7f/Ch[8:1],2b/3b/D3f/A3f/A2f/Ch[8:1],
7b/6b/A7f/A6f/D7f/Ch[8:1],2b/3b/A2f/D3f/A3f/Ch[8:1],{8},Ch[8:1],,,{1}B7f/E8f/B8f,
E
