&title=防人想歌
&artist=onoken; 夏川陽子
&first=0
&des_5=Violency
&lv_5=13+
&des=Violency
&inote_5=(168)
{4},,,1<2<8[1:3],
{1},
{2},4p8[16:20],
{1},
{4},7pp4<8[8:22]*pp4<8[8:22],,,
{1},
{1}1>4[8:8],
{4},,,2h[8:2]/6,
{8}4h[8:5],,3qq8[8:7],3,,,,6x,
{8},6xh[8:3],,,,,2/7,3,
{8}4-8[16:3]/6,,4,6-2[16:3],,6,,B1,
{8},B5,B7/B3,,3/7h[8:2],,5,,
{8}6pp2[8:7],6,,,,3x,,3xh[8:3],
{8},,,,8/2,8,7-3[16:3]/1,,
{8}7,1-5[16:3],,1,8,7h[8:1],6h[8:1],5h[8:1],
{4}4-8[12:2],4bpp5[8:10]*qq3[8:10],,,
{1},
{2}8<3q8[8:14],C,
{2}B2,A2,
{8}2<7pp2[8:10]*<7pp2[8:10],,,,,,E4,E5,
{8}E6,,,,,,8,7,
{8}6<1[8:2],,5,4,3<6[8:2],,2,1,
{8}8q5[8:4],8>4[8:4],,,,,,,
{8}6h[8:2],,4,3,7/1,6,24,3,
{1}/6pp5[8:4]`4qq5b[8:4],
{4}7>2[8:4],6,5,4,
{4}3p6b[8:4],4,5,4,
{4}5p4>6[8:13],7,8,1,
{8}2h[8:2],,,3xp6[8:2]*p6[8:2],3x,,,,
{4}8-5[8:4],1,2,3,
{4}4-1[8:4]*-1[8:4],5,6,7,
{4}8<3[8:4],2,3q1[8:3],2q4<2b[8:8],
{8}2,,,7,7xbh[8:2],,,,
{8}8xqq8[8:2],,3,2,1pp1[8:2],,8,7,
{8}6,5,4pp4[8:2]*qq4[8:2],3,4,,,,
{2}4xbh[8:2]/6xbh[8:2],4-7-2[8:4]/6-3-8[8:4],
{4},,2h[8:2],1<4[8:2],
{8}4q1[8:2],,1<4[8:2]*<4[8:2],2,4q1[8:2]*q1[8:2],,1<4[8:2],2,
{8}4>4[8:4],,8,,4,,8>5[8:2],,
{8}5p8[8:2],,8>5[8:2]*>5[8:2],7,5p8[8:2]*p8[8:2],,8>5[8:2],7,
{8}5<5[8:4],,1,,5,,6,6,
{8}7h[8:2],1,2,8h[8:2],2,3,1-6[8:2],,
{8}6-2[8:2],,2-5[8:2],,5,,2,,
{8}5s1<8z4[8:8]/3h[8:10],,,,,,,,
{8},,,,3-8[8:1]/4-7[8:1],,3/4,,
{16}1x>4[16:3],,,,6/1,,7,,8>3[16:3],,,,8b<5[16:3]/6,,7,,
{8}8>3[16:3],,8-4[16:2],,8,,2,1,
{16}8<5[16:3],,,,3/8b,,2,,1<6[16:3],,,,1b>4[16:3]/3,,2,,
{8}1<6[16:3],,1-5[16:2],,,,B7/B6/B4/B3,,
{8}5b<8[16:3]/1,2,3,4,5>2[16:3],8,7,6,
{8}5b<8b[16:3],,{12}5qq3[16:3]/2,3,4,5,,,8b,,,
{8}5q1[8:1]/6p2[8:1],,5/6,,A7/D8/A8/A4/D4/A3,,7,7<4b[8:2],
{8},4<2[16:6],2,2,{12}3,4,5,6,7,8,
{8}1xbV35[8:6],,5,,6,,7,,
{8}8V24[8:6],,4,,5,,6,,
{8}7V13[8:6],,5,,4,,3-7[8:3],,
{8}6h[8:2],,,6x<5b[8:3],6xh[8:3],,,,
{4}8V64[8:6],4,3,2,
{4}1V75[8:6],5,4,3,
{4}2V86[8:6],4,5,6-4v2<7b[8:6],
{8}3xh[8:2],,,3x,3xh[8:2],,,,
{8}4qq3[8:2],,7,6,5pp6[8:2],,4,3,
{8}2,1,8z4[8:3],7,6<5[8:5],,,,
{16}3h[8:3],,,,,,,,3x/5x,,6,4,7,,8/4,,
{16}8x,7,6,5,7x,6,5,4,6x,5,4,3,5x,4,3,2,
{16}1-4[8:1]/5xb-8b[8:1],,,,,Cf,,,,,,,,,,,
{8},,,,,,8-4[8:1],,
{8}A8f/2-6[8:1],,A2f/7-3[8:1],,A7f/1-4[8:1],,1<4[8:2],
{8},4xq1b[8:2],,1<4[8:2]*<4[8:2],2,4q1b[8:2],,1<4[8:2],2,
{8}4>4[8:4]*>4[8:4],,8,,4,,2,2,
{16}1h[8:2],,3,,5,,2h[8:2],,4,,6,,3/8,,,,
{8}8qq8[8:2]/1,,1pp1[8:2],,,,8,,
{8}8bh[8:8]/1b-7-2-6-3-5b[8:8],,,,,,,,
{8},,,,6-1[8:1]/5-2[8:1],,5b/6b,,
{16}1x>4[8:1],8,7,6,5/1b,,,,8>3[8:1],7,6,5,4/8b<5[8:1],,,,
{8}8b-4[8:1],,8bw4[8:1],,,,2,1,
{16}8<5b[8:1],1,2,3,4/8b,,,,1<6b[8:1],2,3,4,5/1b>4b[8:1],,,,
{8}1b-5b[8:1],,1bw5b[8:1],,,,B7/B6/B4/B3,,
{8}3-8[8:1]/7,4,5,6,3-8b[8:1]/7,4,5,6,
{8}7p5[16:5]/1h[16:8],,,,{32},E2,B2,B3,,,,,6/2,,,,,,,,
{8}6q2[8:1]/2q6[8:1],,/6>3[8:1]/2<7[8:1],,,,,1b/8b,
{8},5/7,4/3,2/6,{32}4/8h[8:3],,,,,,,,6,5,4,3,7,6,5,4,
{16}7-2[8:1]/3-6[8:1],,,,,Cf,,,2x-5b[8:1],,6-1[8:1],,2xb,,6xb,,
{8},3q5b[8:10],7p5[8:9],3,7,,,,
{1},
E
