&title=BlazinG AIR
&artist=kanone
&first=0
&des=Bradish vs Yitiao
&lv_5=14+
&des_5=Bradish vs Yitiao
&inote_5=
(150){4},,,,{48}8bx-2v3-5-3v2-8[2:3]*-5-8[2:3],
7x,6x,5x,{1},{4},,,{16},,{24},{1}3bxV15-1-3[2:3]/2bx-6-2[2:3],
{4},,,,5b-2[8:1],
6/5x,4-7[8:1],3/4x,
{8}5-2[8:1],6,7/5x,6,4-7[8:1],3,2/4x,{16}2,3,
{8}4bx/8bx,3/7,2/6,1/5,{16}8,8,6,6,{32}2,3,4,5,6,7,8,1,
{1}6bx/2b,
{16}7b,5,6,3,4,2,7,5,6,3,4,2,7,8,6,6,
2,4,3,6,5,7,2,4,3,6,5,7,2,2,8,8,
2b,4,3,5,4,6,5,7,5,6,4,5,3,3,4,4,
2,5,4,7,4,5,2,6,2,7,1,6,8/5,7,6,5,
4bx,8,8,5x,1,1,4x,7,7,5x,2,2,8/4,7/3,6/2,5/1,
8x,4,4,1x,5,5,8x,3,3,1x,6,6,4/8,5/1,6/2,7/3,
8bx,3,8,1x,6,1,7x,1,8,2x,8,3,8x,4,{24}7x,6,5,
{8}4b/8b,{16}1/2,3/8,{8}4b/7b,{16}8,7,6,5/1,,5,8x,8x,8x,8x,
{8}6b-4[8:1],{16}1x,1x,{8}6-1[8:1],1-7-4[16:3],3,{16}2,2,,1,{8}1,
8v3[8:1],{16}7,7,{8}8x,6,{16}5s1[16:3],4,,4,{4}5,
{8}3b-5[8:1],{16}1,1,{8}3-8[8:1],8-2-5[16:3],6,{16}7,7,,8,{8}8,
1v6[8:1],{16}2,2,{8}1,3,{16}4/7,4/7,,6,5,5,7,4,
{8}1b>8[8:5],,,,,,,1bx,
1bx-3-5-7b[2:1],,,8bh[8:1],{16},8bh[8:1],,,8bx,1,2,3,
{8}4/7,6/5,5/2,3/4,{16}7x,4,5,2x,7,8,5x,2,
{2}8bs4b[8:5],{4}8-4[8:1],8x,
Cf/6b-8[8:1],{8}6-4[8:1],1,6-8[8:1],3,{4}6-4[8:1]/2-4[8:1],
6x/2x-8[8:1],{8}2-4[8:1],7,2-8[8:1],5,{4}6-4[8:1]/2-4[8:1],
2x/6x-8[8:1],{16}1x/6-4[8:1],2,{8}3,1/6-8[8:1],1,2/6-4[8:1],2,
3h[16:1]/6-8[8:1],3h[16:1],2h[16:1]/6-4[8:1],2h[16:1],1xh[16:1]/6-8[8:1],1xh[16:1],2xh[16:1]/6-2[8:1],3xh[16:1],
{4}6bx/2x-4[8:1],{8}2x-8[8:1],7,2-4[8:1],5,2-8[8:1],7,
6/2x-4[8:1],6,5/2x-8[8:1],5,6h[16:1]/2-4[8:1],6h[16:1],7h[16:1]/2-8[8:1],7h[16:1],
{16}7/2x-4[8:1],6,{8}5,{16}7/2-8[8:1],6,{8}5,5h[16:1]/2x-4[8:1],6h[16:1],7h[16:1]/2-6[8:1],{24}8,7,6,
{8}2b/5b,,,3,{16}6,6,5,5,{32}7,8,1,2,3,4,5,6,
{8}7b-5-1[4:1],5,7,{16}2<6[16:3],2,,3,{8}3,{16}4,4,,5,
7/4,6/3,{8}5/2,2/5,{16}3,4,,6,{8}5,{16}7,8,,1/2,
{8}3-5[8:1],5-7[8:1],3,8,8-4[8:1],1-3[8:1],8,1,
{16}5x,6,7,8,2,3,4,5,1x,8,7,6,{32}2x,1,8,7,6,5,4,3,
{8}6b/2b-6[2:1],3,,4,,5,,7b,
6b-2b[8:1],4,6x,4,{24}4,3x,2x,1x/8b,,,5,6x,7x,8x/4b,{48},,,,{16}2b,
1,2,1,4,6,4,6,8b,7,8,7,{32}1,2,3,4,5,6,7,8,
{8}1b/6b,7/8,{16}1/2,2/1,,5/4,{4}4-1[8:1]/5-8[8:1],4/5,
{1}E1f/B7/B2/E7/E3/Ch[4:7],
{4},,,,3xh[1:1],
,,4,
5xh[1:1],,,4,
3-8[2:1],4,B5,E7,
6-1[2:1],5,B4,E3,
2h[2:1],B3/E4,7h[2:1],B6/E6,
{8}2,{16}3,3,{8}4,{16}6,5,7,7,,2,5,3,4,2,
5x/1b-3[8:1],,,4,{8}1,5,{16}6/5v2[8:1],,,6,{8}5,7,
{16}1/8-4[8:1],,,7x,{8}8x,6,5,4,{16}2,1,,4/6,
,,{8}7,{16}8x,1x-6[8:1],2x,3x,,,,,3,5,4,6,
{8}5/7,{16}3,4,{8}2,6,{16}5>1[8:1],7h[8:1],,5,,,6,7,
8-6[8:1],,,5,4x,3,{8}2,{16}5v8[8:1],,,1,2x,3,{8}4,
{16}7p3[8:1],,,4,3x,2,1,8,{8}5x-1[8:1],4,{16}5x,2,,2,
,7/1,,,{8}5/3,{16}6,5,,7v5[8:1],,,8x,1,2,3,
{8}4,{16}6,5,{8}7,{16}2x/1x,1x/2x,{2}8-4[8:1]/3-7[8:1],
{16}6x/2x>4[8:1],,,8,{8}2,5,{4}8/7V14[16:3],7b/6h[8:1],
{16}5x/1x>3[8:1],,,7,{8}1,8,{4}5/6-8[8:1]*qq6[16:3],6b,
{16}1x/5x>3[12:1],,,6,{8}5,7,{4}6/5s1[8:1],5b,
{48}8x-4[8:1]/1x-5[8:1],2x/7x,3x/6x,4x/5x,,,,,,,,,{4}8x/1x,4xV62[8:1]/6xV48[8:1],6b/4b,
{8}7x/1x,{16}6,5,8,3,{8}4,5/3>2v1<8b[16:3],8x,{4}3b/5,
{8}7x,{16}4,5,2,7,{8}1,2>4-8b[16:3]/8-6b[8:1],5x,{4}2b/8,
{32}1x,2,3,4,5,6,7,8,1x,2,3,4,5,6,7,8,{8}1x-5b[8:1],3/7,{4}1b/5,
2-5[8:1]/6-1[8:1],2/6,{32}4w8[8:1],3,2,1,8,7,6,5,{4}4b,
{8}5/1bx-3[8:1],{16}8,4,1x/5,6,7,8,{8}1/4v1[8:1],{16}3,1,4x/8,7,6,5,
{8}2q6[8:1],{16}1,4,2x/5,6,7,8,{8}1-6[8:1],2/8,{16}1,3,,4,
,,6,5,7,7,3,4,,1/2p4[16:3],,,8,7,6,5,
,,3,4,2,5,1,6,8,7,4,5,2,1,3,7,
{8}4/8bx-6[8:1],{16}1,5,8x/4,3,2,1,{8}8/5v8[8:1],{16}4,8,5x/1,2,3,4,
{8}7p3[8:1],{16}8,5,7x/4,3,2,1,{8}8,7/1,{16}4/6,6/4,,8/2,
,8/6,,,4,3,6,5,,8/7,,1,1,7,{24}7,6,5,
{8}4b/8b,{16}3,4b/2b,,2/1,1/3,1/4,{32}5w1[8:1],6,7,8,1,2,3,4,{4}5`C,
{48}8b/1b,2/7,3/6,4/5,,,,,,,,,{16}3,4,2,6,5,7,1,8,3,5,4,6,
8,7,8,5,8,7,8,5,{48}8,1,{24}2,{48},,{16}6,6,{48}2,3,{24}4,{48},,{16}7,7,
3,5,2,7,5,8,1,8,2,2,4,4,5,5,7,4,
8,2,1,4,8,2,1,4,{32}8,7,6,5h[32:3],,,,,8,7,6,5,4,3/7,2/6,1/5,
{8}4b/8bz4[8:3],,,,,,,2/5,
{16}3b-7[16:1],,,4b-8b[16:1],,,{8}5b-1[16:1],{16},6b-2b[16:1],,,{8}3b,4b,
{16}4,5,3,6,4,5,2,7,4,5,1,8,{32}4/7,5,6,7,8,1,2,3,
{8}4b/6b,{16}8/7,7/8,,1/2,1/2,1/2,{32}3b,4,5,6,8b,7,6,5,4/2b,1,8,7,6,5,4,3,
{4}A6f/B6/E6/E7/2bpp7[2:1],,,6,
7qq2[2:1],,,3,
{16}2h[16:9],,,1,,,{8}8,{16},7,,,{8}E6,E4,
{16}7h[8:3],,,8,,,{8}1,{16},2,4,3,5-2[8:1],4,7,5,
{1}1,
E
