&title=ヒャダインのじょーじょーゆーじょー
&artist=Hyadain
&first=0.03
&des=呜呜呜
&lv_5=14
&inote_5=(200){4},,7x-2[8:1],3x-6[8:1],
8x-4[8:1],1x-5[8:1],2xq8[16:3],8x>4[16:3],
4x<7[8:1],1x,{8}2,5,4,7,
4,5,8,3,4,8,8,8,
8b,8b,8bq1[4:3],8b,,,,,1>6[8:3],
,,8,,2,,8/4,
,2,8,1p8[8:5],{2}7,
{8}8<4[8:3],,,1,,7,,5/1,
,4,2h[2:1],5,,,4,2,
6,2-4[8:1],,1-5[8:1],,2,,,{4}8/7,
{32}2/1qq3[1:1]*>5p8[1:1],A1/E1/E2/A2/E3,{1},{4},{16},{8}B6,
B5,B4,
{4}B3,3-5[8:1]/7-1[8:1],,8/4,
{8}5,3-1[8:1],,4-8[8:1],,3-1[8:1],,1,
,8,3<5[8:1]/7>1[8:1],6,,,{4}6/2,
{8}3,5-2[8:1],,4-7[8:1],,8-3[8:1],,,,7,
8,1,{4}5/2h[8:3],1,
2/3h[4:1],{8}6q2[8:3],2q6[4:1],,,,,,,,4h[8:1],
{4}3h[2:1],{8}2,1,
8,7,6,5/1,{64},,,,,,,,B6,B5,,,,,,,C,B4,,,,,,,B6,B5,,,,,,,C,
B4,,,,,,,B6,B5,,,,,,,C,B4,,,,,,,B6,B5,,,,,,,C,B4,,,,,,,,,,,,,,,{4}6/2,
{8}1,3-5[8:1],,2-6[8:1],,3-5[8:1],,1x,
,7,6-8[8:1]/2-4[8:1],5,,,{4}5/1,
{1}3/7v8v1v2[1:1],
{2},3-1[8:1]/5-7[8:1],
{4}8h[4:1],{8}1v2[8:3],8v7[4:1],,,,,,,4,
5,{4}3,1/2,
{8}8,7,6,5/1,{16}B1,B2,B3,B4,B5,B6,B7,B8,
7x/B1,8x,1,2,3,4,5,6,7,8,{8}1h[8:1],3h[8:1],8h[8:1],
4h[8:1],6h[8:1],1h[8:1],4h[8:1],3h[8:1],2h[8:1],1,8h[8:1],
{4}7>1[16:3],4h[4:1],{8},3,6,4,
1,2,4,1,5h[8:1],2,E7/B7/E8,3xp6[4:1],
{4}E6/B5/E5,5h[4:1],{8},7h[8:1],5h[8:1],4h[8:1],
8h[8:1],1h[8:1],7h[8:1],3h[8:1],5h[8:1],4h[16:1],2h[8:1],1h[8:1],
8>5[4:1],7h[4:1],,,6,8,4,7,
5,6,2,5,8/4,6/2,{4}8>3[8:1]/4<7[8:1],
{1}8z4[4:1]/4z8[4:1],
3x-7[4:5],
{8},,,,,,,,7xq2[4:5],
,,C,,,,,,,,,,,,,{1}1xs5[1:1]*V35[1:1],
{6},,,8/4,7,6,
5/1,4,3,2/6,1,8,
7/3,6,5,3/7,2/6,5/1,
7/3,2,1,{96}7,,,6,,,{32}5,4,3,2,1,8x,7x,6x,5x,4x,3x,2x,1x,8x,
7x,6x,5x,4x,3x,2x,1x,8x,7x,6x,5x,4x,3x,2x,1x,8x,7x,2bx/6bx,5bx/1bx,4bxq8[2:1]/8bxq4[2:1],{4},,,{16},,{8}5-3[8:1]/1-7[8:1],
6/2,{4}5<7[8:1]/1>3[8:1],
{8},,4,6,2,1,3,4,
1q7[4:1],2,{4}1,3<6[4:1],6>3[4:1],
{8},,,,6/2,1,{4}7h[8:1]/8-5[8:1]*-4[8:1],
{2}8-3[8:1]*-2[8:1],{8}6,4/8,6<1[16:3]/2>5[16:3],4/8,
,,2,7<4[8:1],2,7,3>4[4:1],2,
,,,,{4}5-7[8:1],5-3[8:1],
{8}5w1[8:1],,,,,2/6,6/2,2/6,
7/3,2/6,8/4,2/6,7-1[8:1]/3-5[8:1],5/1,{4}7<4[8:1]/3>8[8:1],
{8},,6,4,5,2,1,3,
{4}8>5[4:1],5p7[4:1],7<5[6:1],4>8[4:1],
{8},,,,8/1,7,6/2,5,
{4}4/1h[4:1],8-4[8:1],{8}8,1,5,3-7[8:1],
4,3,5,8,6-8[8:1],1,6,3,
1,2,5,4,{16}3x,5x,2x,4x,{4}3x,
4/7,6/3,{16}4b,5,4,5,4,5,4,5,
3b,6,3,6,3,6,3,6,2b,7,2,7,2,7,2,7,
1b,8,1,8,1,8,1,8,{4}2x>5[8:1],7xp3[8:1],
8x-4[8:1],1x-5[8:1],2x-4[8:1],8x-6[8:1],
1x<4[4:1],4x,{8}8,7/3,6,4/5,
3,2/4,1,8,{24}2,3,4,8,7,6,{4}1-5[8:1],
{2}5bw1[8:1]b,{4}4x-1[8:1],5x-8[8:1],
2x-5[8:1],6x-1[8:1],2x-6[8:1],7x>6[4:1],
{2}4xh[4:1],{8}1/7,{16}5,6,{8}4,1/8,
{16}4,5,{8}4,1/2,{16}4,5,{8}3,6<1[8:1],8>3[8:1]*>3[8:1],2>5[8:1],
4x<7[8:1]*<7[8:1],6x<2[16:3],1x>5[16:3]*>5[16:3],4x<4[4:3]b,
E
