&title=Vindication
&artist=Laur
&first=0.498
&des=Caerulea
&des_5=Caerulea
&lv_5=13+
&inote_5=(174){4}5/4h[2:1],,{2}3<6[4:1],
{4}A2,A3,A4,A5,
{8}6h[8:3],,,7<4[4:1],,,,,,3,
6,4,{2}5-2-7[8:3],
{8}4h[2:1],,,,,7,6>3[4:1],8,
,,{4}A7,A6,A5,
A4/C,{8}2,4h[4:1],,3,5-8[4:1],1,
,,,,D4,D3,{4}D2,
{8}7,8,6,5,8,1,5,4,
{4}7<4[4:1],4q8[4:1],{2}8p3[4:1],
{4}2h[4:1],{8}4,3h[4:1],,5,3,6,
{4}2>5[4:1],5p1[4:1],{2}1q6[4:1],
{4}7h[4:1],{8}5,4V25[4:1],,4/5>4-8[4:1],6,7,
{4}8,A1/A7,A6/A2,A5/A3,
{1}3qq4[2:1]/5pp4[2:1],
7<1[2:1]/1>7[2:1],
{4}8h[4:1],{8}5,7h[4:1]/B5,,4,{4}6h[4:1]/B4,
{8}3,5h[4:1]/B3,,2,{4}B2/4-8[8:1],4,
1h[4:1],{8}4,2h[4:1]/B4,,5,{4}3h[4:1]/B5,
{8}6,4h[4:1]/B6,,7,{4}B7/5-1[8:1],5,
{8}7h[4:1]/2h[4:1],,,3h[4:1]/4h[4:1],,,{4}3h[4:1]/6h[4:1],
{8},7h[4:1]/8h[4:1],,,{4}6-4[8:1]/1-3[8:1],1/6,
{8}2h[4:1]/7h[4:1],,,6h[4:1]/5h[4:1],,,{4}6h[4:1]/3h[4:1],
{8},2h[4:1]/1h[4:1],,,{4}3-5[8:1]/8-6[8:1],8/3,
{8}3,{16}5,4,{8}6,6h[4:1],,8,{4}5/1>4[8:1],
{8}1,7-2-5[4:1],,7,{4}4h[4:1],6,
{8}6,{16}4,5,{8}3,3h[4:1],,1,{4}4/8<5[8:1],
{8}8,2-7-4[4:1],,2,{4}5h[4:1],3,
{8}2/6-1[8:1],3,4,5h[4:1],,7,{4}4h[4:1],
{8}6,3h[4:1],,5,{4}4h[4:1]/2-5[8:1],2,
{8}7/3-8[8:1],6,5,4h[4:1],,2,{4}5h[4:1],
{8}3,6h[4:1],,4,{4}5/7-3[8:1],7/1pp2-5[2:3]*qq8-5[2:3],
{1}A1f,
{8},,,,,,,,B6h[1:1],
,,B3h[8:5],,,{4}Ch[4:1],
,1/E8,7/B2,3/B6,
5h[4:1]/Cf,4h[4:1],6h[4:1],3h[4:1],
7h[8:1],4h[8:1]/6h[8:1],5h[8:1]/3h[8:1],2h[8:1],
{8}1/5,1/5,2/6,2/6,{16}3,7,3,7,{32}4,5,6,7,8,1,2,3,
{1}4z8[2:1]/5s1[2:1],
{4}2-4[8:1]/5-1[8:1],2/5V38-4[8:3],{8}5/7-5[8:1],8,{4}7,
{8}3/6,{16}2,4,2,4,{8}2,6/5,4/7,{4}3-8[8:1]/8-4[8:1],
8/3,C,{24}7,6,5,1,2,3,{4}8b-4[8:1],
8<5[8:1]*>3[8:1],8-3-6-1[8:3],{2}8b/1b,
{32}A4,D4,A3,D3,A2,D2,A1,D1,{4}A8/6-2[8:1],{8}6-8[8:1],1-5[8:1],6,1>7[4:1],
,1xh[8:3],,,8,7-5[8:1]/2-4[8:1],,,{4}A5/D5f/A4,
{8}6-1[8:1],2-5[8:1],6,2,,8/3,
{4}7-1[8:1],2/7-4[8:1],{8}7/3-7[8:1],3,6-1[8:1],6,
{4}2h[4:1],3V58[4:1],{8}2-5[8:1],1,{4}2,
{8}7/4,{16}6,5,6,5,{8}6,4/3,{16}2,2,{4}5,
{32}A5,D6,A6,D7,A7,D8,A8,D1,{4}4h[4:1]/A1,{8}2,8/4,{4}3-7[8:1],
{8}3-1[8:1],8-4[8:1],3,8<2[4:1],,,,,1/8,
{16}2-4[8:1]/7-5[8:1],8,{4}1,{8}A5/D5f/A4,6x/3x,7x/2x,1h[8:5]/8<1[8:3],
{16},,,,,,,,,,7,8,7,8,7,8,
{4}7-5[8:1],{8}7,1-7[8:1],,1/3-1[8:1],,3/5-3[8:1],
,5,6-1[8:1],7,6,3-8[8:1],2,3,
{1}Cf,
,8qq5[2:3]/4qq1[2:3],
{4},,,,5h[2:1]/E7h[2:1],
,,4/6,
5h[2:1]/E4h[2:1],,,4/2,
{1}1pp4[2:3]/5pp8[2:3],
{8},,,,,,,,B7h[4:1],
,,B3h[4:1],,1,8,7,
{2}2>5[8:1]/6<1[8:1],{8}B7,B2,{4}C,
2V48[2:1],7,8V25[8:5],7,
{2}6-1[8:1],{8}A8,A3,A7,A4,
{4}7V51[2:1],2,1V74[8:5],2,
{2}3-8[8:1],{8}A1,A6,A2,A5,
{4}4/3q4[2:1],E7,{2}E1,
{4}5/6p5[2:1],E3,{2}E1,
{8}2h[2:1],3,4,5,6h[2:1],5,4,3,
{2}Ch[4:1],{16}7,2,7,2,8,1,8,1,
{4}7<4[8:1],7/1-6V83[8:3],{8}1,4,5,6,
{4}7-1[8:1]/4-6[8:1],4/7V53[4:1],{8}7,8,{4}6-1[8:1]*-8[8:1],
6,{8}2/6,4<7[8:1],,4/1>4[8:1],8,1,
{4}8-6[8:1],{8}8-4[8:1],3-6[8:1],8,3,{16}7>2[8:1],5,8,4,
{4}7,{8}3-8[8:1],8V25[4:1],3,6,7,8,
{4}1<6[8:1],1/5V31[4:1],{8}5/7-3[8:1],6,{4}7,
8h[4:1],{8}5-1[8:1],2h[4:1],{4}5-2[8:1],{8}5/7-4[8:1],6,
{4}7,{8}2-6[8:1],5,2-4[8:1],{16}7,7,{4}2-8[8:1],
2/7-3[8:1],7/4h[4:1],{8}5,3/6,{4}2-8[8:1]/7-3[8:1],
7V58[4:1]/2-5[8:1],2/7,{8}2,1,2,1,
{4}8<4[4:1],4>8[4:1],{2}8<4[4:1],
{4}2h[4:1],{8}4-8[8:1],5,2-6[8:1],1,{4}7-4[8:1],
7/5h[4:1],C,3/4h[4:1],C,
7<4[4:1],4>1[4:1],1<6[4:1],6<4[2:1],
4h[2:1],{8},,,,2-5[8:1]/6-1[8:1],7/3,
{4}2/6>3[8:1],{8}6,{16}E2,E1,{4}E8,3x-7[8:1]/6x-2[8:1],
{2}Cf,{8}4x/7x-2[8:1],4,4,4,
4x/1x-6[8:1],4,4,4,3/7,2/6,{4}5/1>8[8:3],
{2}1/5bh[4:1],{32}1b,2,3,4h[32:13],,,,,{4}8<1[8:3],
{2}8b,{32}8b,7,6,5,,,,,{4}1-4[8:1]/5-8[8:1],
{32}1/5,Cf,,,,,,,,,,,,,,,{8}5x/2x-7[8:1],5,5,5,
5x/8x-3[8:1],5,5,5,6/2,7/3,{4}4/8<1[8:3],
{2}8/4bh[4:1],{32}8b/A4,7/A3,6/A2,5h[32:21]/A1,,,,,{8}1x,1>8[16:5],
{32},,,,,,,,,,,,,,,,1b/A5,2/A6,3/A7,4/A8,,,,,{4}8x-5[8:1]/4x-1[8:1],
{32}8/4,Cf,,,,,,,,,,,,,,,{8}7/5,6/4,{4}5/3h[8:1],
{8}2/4,3/5,{4}4/6h[8:1],{8}7-3[8:1],8-4[8:1],7,8,
{32}A5,D6,E6,A6,D7,E7,A7,D8,{4}5x>2b[8:1],{24}8,7,6,5<4[8:5],,,{8}5x,{24}1b/E6,2/E7,3/E8,
{8}4h[2:1]/E1,{16},,,,,,,,2,6-3[16:3],2-7[8:1],6,2,6,
{4}2,C,{8}2/4,3/5,{4}4/6h[8:1],
{8}7/5,6/4,{4}5/3h[8:1],{8}2-6[8:1],1,{4}2,
{32}8b/4bz8[2:3],7/3,6/2,1/5z1[32:45],
E
