&title=美しい世界へ
&artist=卡拉彼丘
&first=0.04
&des=Scarl3t
&des_5=
&lv_5=13
&inote_5=(155)
{1},
{4}3h[4:6]/5h[4:6],,,,,,,,6h[4:6]/4h[4:6],,,,,,,,
{8}B5,B4,B3,B4,B3,B2,E4,E3,E2,A3,A2,A1,D3,D2,D1,,
{8}B4,B5,B6,B5,B6,B7,E6,E7,E8,A6,A7,A8,D7,D8,D1,,
{4}1>4[4:2],{32},,,,,,,B2,B3,,,,,,,,,,,,,,,,{4}8<5[4:2],,B7/B6,,
{4}1>5[4:2],{32},,,,,,,B2,B3,,,,,,,,,,,,,,,,{4}8<4[4:2],,B7/B6,,
{4}4>8[4:2],{32},,,,,,,B3,B2,,,,,,,,,,,,,,,,{4}5<1[4:2],,B6/B7,,
{4}1>8[4:6]/8<1[4:6],,,,,,,,
{4}7h[4:4],,E7,,4h[4:4],,E5,,6h[4:4],,E6,,3h[4:4],,E4,,
{4}4h[4:4],,3,,5h[4:4],,6,,8h[4:7],,C,,1h[4:3],,,,
{4}4qq5[4:4]/3h[8:10],,,,,,7h[4:1],,
{4}5pp4[4:4]/6h[8:10],,,,,,2h[4:1],,
{4}5pp8[4:6]/4h[4:5],,,,,,1h[4:1],,
{4}1b-4-7-2-5-8-3-6-1[4:6]b/C/B3/B4,,,,,,,,
{4}4x/3h[4:7],2-4[8:1],,7-5[8:1],,2-4[8:1],,E5,5x/6h[4:3],7<5[8:1],,2>4[8:1],
{8}B5,B6,B7,B8,B1,B2,B3,B4,
{16}2h[8:1]/4h[8:1],,,,3,4,3,,1/2,,3,,1/2,,8,,
{16}7h[8:1]/5h[8:1],,,,6,5,6,,8/7,,6,,8/7,,1,,
{8}2h[8:1]/4h[8:1],,7h[8:1]/5h[8:1],,
{12}1/3,,8/6,
{8},3/7,1h[8:2]/5h[8:2],,,,
{8}2-7[8:1]/6-3[8:1],,2b/6b,,
{8}1-5-3[4:1],1,8,7,6-8-4[4:1],6,4,3,2-4-8[4:1],2,1,8,7-3[8:1],,7b,,
{8}2-4[8:1],,2/1-5[8:1],,1/8-4[8:1],,7-5[8:1]/8,,7/3>7>3[4:2],,Ch[4:2]f,,,,,,
{8}8-4[8:1],8,2-5[8:1],2,6-8[8:1]*-2[8:1],,6x,,
{8}3-8[8:1],3,7-2[8:1],7,3-6[8:1]*-8[8:1],,3x,,
{8}2-4[8:1],1,8-3[8:1],7,6-1[8:1],5,
{16}B4,B3,B2,,,,8,,7-3[8:1],,6,,5w1[8:1],,,,B5,C,B1,,
{8}8x-4-6[4:1],8,1,2,3-1-5[4:1],3,5,6,7-5-1[4:1],7,8,1,2-6[8:1],,2b,,
{16}4h[8:1]/8h[8:1],,,,7,,7v4[8:1],,,,7,,3h[8:1],,,,
{16}5h[8:1]/1h[8:1],,,,2,,2v5[8:1],,,,2,,
{32}A6,D7,A7,D8,,,,,
{8}1-4[8:1],4-1[8:1],1-6[8:1],6<4[8:2],,,,,
{8}8-5[8:1],5-8[8:1],8-3[8:1],3>5[8:2],,,,,
{8}3/4,2,5/6,7,3/4,1,5/6,8,3/5,1,4/6,8,
{16}4,8,3,7,2,6,1,5,
{8}2x/6x,3v8[8:1]b/7-4[8:1]b,4/8,3/7,,4/6,3/7,2/8,1-4[8:1]b,1-6[8:1]b,1x,1x,,
{8}4,5,6,
{16}8x,7,8,7,2x-4-8-6[8:3]b,1,2,1,2,,,,,,,,5-8[8:1]b,,3-8[8:1]b,,5x,,3x,,,,
{8}1/7,2/6-8-5[8:2]b,3/5,6x/4-2-5[8:2]b,,4x,,,8-4[8:1]b,4-8[8:1]b,8x,,,,
{8}4pp4[8:2]*qq4[8:2]b,4x,,,,
{16}2,1,3,8,4,7,5,6,3,4,2,5,1,6,8,7,
{32}1,2,3,4,5,6,7,8,1,2,3,4,5,6,7,8,1,2,3,4,5,6,7,8,1,2,3,4,5,6,7,8,1/Ch[4:15],,,,,,,,
{1},,,
{4},,,5-8[4:2],4,4,4,4-1[4:2],5,5,5,
{8}6/5,6,6/4,6,6/5,6,6/3,6,
{16}3h[8:1]/4h[8:1],,,,2,1,2,,2v5[8:1]/8-4[8:1],,,,2b/8b,,,,
{16}6h[8:1]/5h[8:1],,,,7,8,7,,7v4[8:1]/1-5[8:1],,,,7b/1b,,,,
{8}2b/6b,3b/7b,2b/6b,3bqq8[4:2]/7bqq4[4:2],,,,,
{1},
{4}2bh[4:3]/B6f/E7/E6/A6,,,,7bh[4:3]/B3f/E3/E4/A3,,,,3b-1-4[4:2]b*pp4[4:2]b/Cf,,,,
{24}8x/6x,,,,7x/5x,,,,,4x/6x,,,1x/3x,,,,2x/4x,,,,,3x/5x,,,
{8}1-5[8:1],1,7-2[8:1]/1,7,7/4w8[8:1]b,4,4b,,
{8}6-1[8:1],6,6/3-7[8:1],3,3/1w5[8:1]b,1,1b,,
{8}7-5[8:1],8,1-6[8:1],2,3-8[8:1],4,5,
{16}B6,B7,B8,,E2,,E3,,E4,,,,Ch[8:1],,B3,B7,B2,B8,
{8}1x>4[8:1],1,8,7,6<1[8:1],6,5,4,3<6[8:1],3,2,1,8z4[8:1]b,,4b/8b,,
{16}6h[8:1]/2h[8:1],,,,1,,1V35[8:1],,,,1,,6h[8:1],,,,
{16}3h[8:1]/7h[8:1],,,,8,,8<4[8:1],,,,8,,
{32}A3,A2,A1,A8,,,,,
{8}7x-4[8:1]b,4-7[8:1]b,7-2[8:1]b,2<4[8:2]b,,,,,
{8}2x-5[8:1]b,5-2[8:1]b,2-7[8:1]b,7>5[8:2]b,,,,,
{8}7/8,6,4/5,3,1/2,3,4/5,6,7/8,1/6,2/5,3/4,
{32}1/2,3,4,5,6,7pp4[32:27]b,8,1,2qq4[8:6]b,3,4,5,6,7,8,1,2,,,,,,,,,,,,,,,,,,,,,,,,,,,,,,,,
{8}2-4[8:1],2,1,8,7-5[8:1],7,8,1,3>1[8:1],3,4,5,6<8[8:1],6,5,4,2>3-5[8:1],2,1,8,7<4[8:2],7,
{16}4,3,2,1,8w4[8:1]b,,,,Cf,,,,
{8}1-7[8:1],{16}5,5,{8}1-3[8:1],6,1-7<6[8:1],{16}5,5,{8}1-3<4[8:1],4,1-6[8:1],{16}5,5,{8}1,7,
{8}8x>3[8:1],{16}4,4,{8}8<5[8:1],5,8-4[8:1],{16}4,4,{8}8,3,
{16}1,2,1,2,8,3,8,3,7,4,7,4,6,5,Ch[16:10]f,,,,,,,,,,
{32}8bxv5-7>8[8:26]b,1bx,2bxv5-3>2[16:51]b,
