&title=TES's Theme Song
&artist=蔚蓝边际
&first=1.505
&des=RNGFanboy
&lv_5=10+
&des_5=RNGFanboy
&inote_5=
(79){4},{8},,,,,,,,,,(78.65)3h[4:1],
4,5,6h[8:3],
{1}4<2[1:1],
{4}5,6,{8}4/6h[4:1],5,4,3h[8:3],
{1}5>7[1:1],
{4}4,3,{8}5/2,3,4/7,6,
(78){2}3h[4:1]/5>7[2:1],{4}4,3,
{8}3/5,{16}3,4,{8}3,{16}6,5,{8}6,{16}4,5,{4}3<1[2:1],
{2}3/5h[4:1],{4}6,2/5h[8:1],
{8}3h[4:3]/4pp8[2:1],{16},,,,,,,,,,,,6,5,
{8}7h[4:1]/5h[4:1],{16},,,,3,4,{2}2h[4:1]/4h[4:1],
{4}5/4>1[4:1],{8}4,5,{4}6h[8:1],4>1[4:1],
{8}4/7,7,6,6,{4}4/5h[4:1],4>1[4:1],
{8}4,5,,5,{2}4h[4:1]/6>1[2:1],
{4}5,4,7h[8:1]/4h[8:1],5h[8:1]/2h[8:1],
4/5<8[4:1],{8}5,4,{4}4h[8:1],{8}5<8[4:1],4,
5/3,3,2,2/1,{4}8-5[8:1]/1-4[8:1],1/8,
{8}4/5,3h[8:3],,5,{4}6h[4:1],5>1[4:1],
{8}5,6,6,5/8,{4}1-4[8:1]/4<6[8:1],4/1,
{16}7h[2:1]/3h[2:1],,,,,,,,,,,4,{8}5,{16}5,6,
{4}7b/4h[2:1],8b,1bp8[4:1],1,
4h[2:1],{8}7,6,{2}5w1[8:1],
{8}3-7[8:1],4/2h[4:1],,,6>3[8:1],5/7h[4:1],{16},,,,6,
5,{8}6,{16}4,5,{8}4,{4}3/5h[4:1],{8}2,3,
{4}4b/6h[2:1],3b,2bV48[4:1],{8}6,6,
{4}5h[4:1],{8}1,2,4/3,5/2-6[8:1],,2,
5h[4:1],,,4-8[8:1],3h[4:1],,,7,
6/4,3/5,7/4,5/2,{2}8h[4:1]/5-1[8:1],
6b/3b>6[2:1],5h[2:1],
{8}4,3-8[8:1]*-6[8:1],,,,,5/2,4/7,
{2}3b/6b<3[2:1],4h[2:1],
{4}5b-1[8:1],4b-8[8:1],6b-2[8:1],3b<1[4:3],
5h[2:1],,,5<8[4:1],
{8}1b,1b,2b,3b,{2}4b-1[8:1]/5b-8[8:1],
{8}2-6[8:1],7,{4}7,{8}7-3[8:1],1,{4}1,
2-6[16:1],7b/2b,{8}7-3[16:1],6,{4}2b/7b,
(79){2}4b>7[2:1],{8}6h[2:1],,,5,
{2}4-7[8:1]*-1[8:1],{16}6,5,{8}6,{16}3,4,{8}3,
(80){4}2b/5b<2[2:1],3,{8}4,4,{4}4h[#0.75],
(81)5b-1[8:1],4b-8[8:1],6b-2[8:1],3b<1[0.7407##1.5],
(80){2}5h[4:1],{4}5<8[4:1],5/3,
{8}4,4,3/5,3,{2}2h[4:1]/5<8[4:1],
{8}4,4,5/4>1[4:1],6,7,7h[4:1],,8,
6/1,4/3,2/1,8,{2}5h[#1.5]/7h[#1.5],
(79){4},{8}4,4/6,{2}4/7-3[8:1],
4/7-3[8:1],5/2-6[8:1],
{4}2-6[8:1],7,7-3[8:1],7/4,
2-6[8:1],2/7-3[8:1],{2}7/1w5[2:1],
E
