&title=Xiorc
&artist=Team Grimoire; あま猫
&first=0.21
&des=sretuoy
&lv_5=14
&inote_5=(160){8}6,4,5,3,6h[8:1],,5,4,36,4,2/5h[4:1],,3h[4:1],,4,,25,,63,6,4/7h[8:1],,8/5h[4:1],,7h[8:1],,6h[8:1]/4h[8:1],,3h[8:1]/5h[8:1],,6h[8:1]/4,,
{8}7h[48:1]/8,,1h[8:1],,{48}6,5,,,,,{8},7h[8:1],,{48}2,1,,,,,{8},3h[8:1],,{48}3,4,,,,,{8},5h[8:1],,
{1}6h[4:4]/3h[4:3],{24}3,4,5,{8}6>8[8:13],{4},,,{1},
(195){8},{4}7h[16:2],6h[16:2]/7h[8:1],8h[16:1]/7h[8:1],8h[16:2]/1h[16:1],{16}2,1,3,8,4,7,5,6,1,8,2,7,3,6,
{8}4b-8[8:1]/5,,47,6,5^8[8:1],5,{16}8,1,2,3,{8}4-1[8:1],,4,{16}7,6,5-8[8:1]/8-3[8:1],,,,{4},
{16}1,2,3,4,6,7,8,1,5,4,3,2,8,7,6,5,4h[4:1]/8^3[8:1],,,,,,5,6,7-4[8:1]*-3[8:1],,,,,,,,
{16}2^4[12:1],1,2,,,,7,6,5h[8:1],,,,3,,24,,7^5[12:1],8,7,,,,1,2,3h[8:1],,,,6,,75,,
8-4[8:1],1,8,,,,1,2,3h[8:1],,,,65,,47,,8,4,8,4,8,4,8,4,6,2,6,2,6,2,6,2,
{8}1b/5b-1[8:1],,52,3,4^1[8:1],4,{16}1,8,7,6,{8}5-8[8:1],,5,{16}2,3,4-1[8:1]/1-6[8:1],,,,{4},
{16}5,6,7,8,2,3,4,5,8,7,6,1,2,3,7,6,5h[4:1]/4^2[12:1],,,,,,8,7,6-2[8:1],,,,68,,,,
{16}1-4[12:1],7,8,,1,,7,6,5h[8:1],,,,6,,75,,2-5[12:1],1,3,,2,,8,7,6h[8:1],,,,3,,24,,
1-5[8:1],8,2,,1,,8,7,6,,6,,34,,52,,1,5,2,6,3,7,4,8,5,1,4,8,3,7,2,6,
{1}1bv3[4:4]/5bv7[4:4],{4},,26,15,8-4[1:1]/4-8[1:1],,,,,,37,26,
{8}1>1[4:6]/5,,,5,,,6,,,7,,,5,,5,,7v5[8:3],,,5q2[8:4],,,4,,,1<4[8:3],,,2-6[8:1],,2,,
{8}7-4[8:3],,4,4V61[8:6],,,3h[8:2],,,1V74[8:4],,,3-8[8:1],,3,,
{8}2-5[8:3],,5,5V38[8:6],,,6h[8:2],,,8V25[8:4],,,6-1[8:1],,6,,
{8}3-8[8:3],,8,8V25[8:6],,,7h[8:2],,,5V38[8:4],,,7-4[8:1],,7,,
{1}1bq2[4:4]/5bq6[4:4],{4},,8-5[8:1]/4-1[8:1],48,
{4}2-7[8:1]/6-4[12:1],26,{16}8,1,2,3,46,7,8,1,{4}2<4[4:1]/5h[16:3],{8},3,2-5[8:1],,52,6,
{4}7-2[8:1]/3-5[12:1],73,{16}1,8,7,6,53,2,1,8,{4}7>5[4:1]/4h[16:3],{8},6,7-4[8:1],,37,2,
{4}5-7[12:1]/1-5[8:1],15,8-4[8:1]/3-1[12:1],3/8<3[8:3],8h[8:2],,{16}8,7,6,5,4,3,2,1,
{4}4^1[4:1]/8,1^6[4:1],6^3[4:1],3qq5[4:3],8h[4:3],,,,
{4}8^5[4:1],5^2[4:1],2^7[4:1],7p2[8:3],1h[4:1],{8},1,8,,7,8,
{4}1^4[4:1],4^7[4:1],7^2[4:1],2q7[8:3],8h[4:1],{8},8,1-5[8:1],,13,,
{4}8-5[8:1],8-3[8:1]/2,8-4[8:1]/6,82,
{4}1-4[8:1],1-6[8:1]/7,1-5[8:1]/3,15,
{8}8<4[4:1],,4>8[4:1],4,8<4[4:1],8,4>4[2:1],4,1h[2:1],,,,
,,1w5[8:1],,1b<2[4:2]*>8[4:2],,,,,,,,
{16}1,1,1,1,1,1,1,1,1,1,1,1,1-5[8:1],1,1,1,{1}1b,
{4},,,64,64,,,,,,35,,43,,,45,64,,75,,3h[16:12],{8},4,4,,2,,
{16}1b/8b,,,6b/5b,,,2b/4b,,,7b/1b,,,5,4,5,4,
{8}63,,4^2[12:1],5,6,,8,,6,,4^2[12:1],6,7,,4,,
{8}36,,5^7[12:1],4,3,,1,,3,,5^7[12:1],3,2,,2,,
{1}8bw4[2:1]/4b,1b-4[2:1]*-6[2:1]/5b,
{16}2b,4,3,7b,8,6,2b,4,3,7b,8,6,1b,,1b,,{32}7b,6,5,4,,,1b,2,3,4,,,8b,7,6,5,
{8}1h[16:1],1h[16:1],1h[16:1],1h[16:1],
{8}7-3[8:1],3V58[4:1],72,2,1^4[8:1],1,17,,6-2[8:1],,68,,1-6[8:1]*-4[8:1],,1,,
{8}2-6[8:1],6V41[4:1],27,7,8^5[8:1],8,82,,3-7[8:1],,31,,8-3[8:1]*-5[8:1],,8,,
{8}7-4[8:1],4V61[4:1],73,3,2-7[8:1]*-5[8:1],2,2,,6-1[8:1],1V74[4:1],62,2,3-6[8:1]*-8[8:1],3,3,,
{8}7-4[8:1],8,1,2h[4:1],3,4,5,6,{16}1b/7,2,3,4/5b,6,7,8/2b,3,4,7b,6,5,{32}1b/4,2,3,4,5,6,7,8,
{8}1-4[8:1],4V26[4:1],5,6,7-4[8:1],8,7,1,2^7[8:1],3,4,5^2[8:1],6,7,8,8,
{16}12,,3,4,25,,87,,2,1,3,,7-4[8:1],8,6,8,7,,2,2,8,1,6,5,8,1,7,2,6,3,5-1[16:1],4,
{1}5b/4,7b-3[16:1],
{16}2,1,3,8,4,7,5,6,8,7,1,6,2,5,3,
4b,2,8b,1,6,5b,7,1,6b,8,4,1b,5,2,6b,{32}37,48,15,26,3bv1[2:9]/7bv5[2:9],
