&title=雨とカプチーノ
&artist=ヨルシカ
&first=0
&lv_5=13
&des_5=软糖酱
&inote_5=
(100){4},,{16},,,{64},,,{128},4/5,{4},{12}3,
{24}3,5,,5,{12}4,{24}4,6,,6,{12}4,{24}4,5,,3,{12}4,{24}5,4,,3,
{12}5,{24}5,4,,6,{12}5,{24}4,5,,6,{12}4,{24}4,5,,5,{12}6,{24}4,3,,5,
{12}6,{24}6,4,,4,{12}5,{24}5,3,,3,{12}5,{24}5,4,,6,{12}5,{24}4,5,,6,
{12}4,{24}4,5,,3,{12}4,{24}5,4,,4,{12}2,{24}2,1,,1,{12}8,{24}8,7,,7,
{12}6,{24}6,4,,4,{12}5,{24}5,3,,3,{12}5,{24}5,4,,6,{12}5,{24}4,5,,6,
{12}4,{24}4,5,,3,{12}4,{24}5,4,,3,{12}5,{24}5,4,,4,{12}3,{24}5,6,,4,
{12}3,{24}3,5,,5,{12}4,{24}4,6,,6,{12}4,{24}4,5,,3,{12}4,{24}5,4,,3,
{12}5,{24}5,4,,6,{12}5,{24}4,5,,6,{8}5/7-3[12:1],8/1,{4}7/2>5[8:1],
6q8[16:3],5>1[8:1],{8},7-4[8:1],8/6,7/3qq5[16:3],
,,{4}6h[8:1],{8}7,8-5[8:1],1-4[8:1],8,
{4}1,4/5,{8}6/3,7p4[4:1],{4}2-5[8:1],
,6/3,{8}5h[8:1],{24}4,,5,,,3,4,,3,
{4}4V62[4:1],4h[4:1],{8},1V73[4:1],2,1h[4:1],
,,,5q2[8:1],2>5[8:1],5pp5[16:3],1,1,
{32}2h[32:7],,,,,,,4,{4}3,4h[8:1]/3h[8:1],{8}5/4,5h[4:1]/4h[8:3],
{24},,,,,,,,,,,2/7,,,3,4,,,{4}2b>5[8:1]/5b<8[8:1],
2/5qq1[8:3],5/7<4[8:1],7>2[8:1],7/3<6[8:1],
3/7>2[8:1],5/7s3[8:1],,3p7[8:1]/7p3[8:1],
{2}3<6[8:1]/7>2[8:1],{8}3,4,5,6,
4b/8b,6b<1[8:1]/2b>5[8:1],5/1,2/6,,8/4,3/7,6/2,
{4}5v7[8:1]/1v3[8:1],1<6[8:1]/5>2[8:1],1/5V38[8:1],5/7V52[8:1],
7/3V16[8:1],3/7V14[8:1],7/5V31[8:1],5/7p2[8:1],
2q7[8:1],{8}3,{24}3,,6,{12}5,{24}3,4,,,{4}5/2q7[8:1],
7p2[8:1],{8}6,{24}6,,3,{12}4,{24}6,5,,5,{12}4,{24}4,3,,3,
{12}2,{24}2,1,,8,,,4,5,,5,4,,,,,6,{12}5,{24}3,4,,4,
{12}6,{24}6,3,,,{8}5pp8[2:1],1bpp4[8:3],{24},,,,,,,,,,,,,,7,
6,5,4,{8}3,{24}3,4,3,{8}4h[8:1],5h[8:1],{4}7h[4:1],
{12}2b,{24}2,3,,3,{12}4,{24}4,5,,5,{12}7,{24}7,6,,6,{12}5,{24}5,4,,4,
{12}2,{24}2,4,,4,{12}5,{24}5,7,,7,{12}5,{24}5,4,,4,{12}2,{24}2,1,,1,
{12}2,{24}2,8,,8,{12}1,{24}1,7,,7,{12}3,{24}3,5,,5,{12}4,{24}4,6,,6,
{8}2b/8b-4[8:1],7b/1b-5[8:1],,,,1/5,6/2,3/7,
{4}4v2[8:1]/8v6[8:1],8>3[8:1]/4<7[8:1],8/4V61[8:1],4/2V47[8:1],
2/6V83[8:1],6/2V85[8:1],2/4V68[8:1],4/2q7[8:1],
7p2[8:1],1qq7[8:1]*pp3[8:1],1-5[8:1],1/7p2[8:1],
2q7[8:1],8pp2[8:1]*qq6[8:1],8-4[8:1],8/2q7[8:1],
7p2[8:1],{8}1,{24}1,,3,4,,,,,2,{12}5,{24}1,6,,8,
{8}7-4[8:1],6,7b/1-5[8:1],{24}2,,7,{8}1b/8-4[8:1],{24}7,,3,{8}8b/2q6[8:1],{24}1,,6,
{8}2b/7-4[8:1],{24}8,,1b,7b/2q6[8:1],,,,,7,{8}2b/8-4[8:1],{24}7,,2,{8}8b/1-5[8:1],{24}2,,7,
{8}1b,8,{24},,5,6,,4,{8}5,3,2/4,5/1,
6/2,7<4[8:1]/3>8[8:1],8/4,3b/7b,,4,3,2,
5v7[8:1]/1v3[8:1],2/6,{4}1b<6[8:1]/5b>2[8:1],5b/1b-5[8:1],{8}1b/7p3[8:1],6,
7b/2-5[8:1],1,2b/7-4[8:1],{24}8,,1b,{8}7b/2q6[8:1],1b,{12}2b,{24}7b,8b,,,{4}5/1,
7p3[8:1]/3p7[8:1],7>2[8:1]/3<6[8:1],7pp5[4:1],
,1-4[8:1],,4/7pp5[4:1],
{8},,1h[8:1],{24}5,,3,4,,,,,6,{12}5,{24}3,4,,4,
{12}3,{24}3,5,,5,{12}4,{24}4,6,,6,{12}4,{24}4,5,,3,{12}4,{24}5,4,,3,
{12}5,{24}5,4,,6,{12}5,{24}4,5,,6,{12}4,{24}4,5,,5,{12}6,{24}4,3,,5,
{12}6,{24}6,4,,4,{12}5,{24}5,3,,3,{12}5,{24}5,4,,6,{12}5,{24}4,5,,6,
{12}4,{24}4,5,,3,{12}4,{24}5,4,,4,{12}2,{24}2,1,,1,{12}8,{24}8,7,,7,
{12}6,{24}6,4,,4,{12}5,{24}5,3,,3,{12}5,{24}5,4,,6,{12}5,{24}4,5,,6,
{12}4,{24}4,5,,3,{12}4,{24}5,4,,3,{12}5,{24}5,4,,4,{12}3,{24}5,6,,4,
{2}5/3h[24:5],{12}4/6h[24:5],,,,,5h[12:7]/4h[12:7],
E
