&title=Highscore
&artist=Panda Eyes; Teminite
&first=0
&des=Kurene_SaiKouTen
&lv_6=14
&inote_6=(110)
{1},,,
{1}2bq4[4:6]/6bq8[4:6],,
{1}1-4[4:5],
{1}8-5[4:5],
{1}1-4[4:5],
{4}8-5[4:5],,,4p1[4:6],
{4}4,,,5q8[4:6],
{4}5,,,4p1[4:6],
{4}4,,,5-8[4:2],
{4}5,,,18,
{8}1bz5[4:3]/8b,,8,7,6,5,6,7,
{16}8s4[4:3],,,,1,1,2,2,3,,4,,3,,2,,
{16}1s5[4:3],,,,8,8,7,7,6,,5,,6,,7,,
{16}8z4[4:3],,,,1,1,2,2,3,,2,,1pp4[8:7],,1,,
{16}1b,,,,,5,6,7,8<5[8:1],,,,8qq5[8:7],,,,
{16}8,,,,,4,3,2,1>4[8:1],,,,1pp4[8:7],,,,
{16}1,,,,,5,6,7,8<5[8:1],,,,8qq5[8:7],,,,
{16}8,,,,,4,3,2,1>4[8:1],,,,1w5[8:1],,,,
{16}1b,,,,5,4,3,2,1-3[16:1],8-4[16:1],1-5[16:1],8-6[16:1],1,8,1,8,
{16}2b,,,,4,5,6,7,8-6[16:1],1-5[16:1],8-4[16:1],1-3[16:1],8,1,8,1,
{16}7b,,,,5,4,3,2,1-3[16:1],7-3[16:1],1-5[16:1],7-5[16:1],1,7,1,7,
{16}8b,,,,4,5,6,7,8-6[16:1],2-6[16:1],8-4[16:1],2-4[16:1],8,2,8,2,
{16}1b,,,,6,5,4,3,2-4[16:1],6-8[16:1],2-8[16:1],6-4[16:1],2,6,2,6,
{16}3b,,,,3,4,5,6,7-5[16:1],3-1[16:1],7-1[16:1],3-5[16:1],7,3,7,3,
{16}6b,,,,5,4,3,2,1-3[16:1],1-4[16:1],1-5[16:1],1-6[16:1],,,,,
{16}8b,,,,4,5,6,7,8-6[16:1],8-5[16:1],8-4[16:1],8-3[16:1],,,,,
{16}1bq4[4:3],,,,8,8,8,8,6,6,6,6,5,6,7,8,
{16}8bp6[4:3],,,,1,1,1,1,3,3,3,3,4,3,2,1,
{16}1bq2[4:3],,,,8,8,8,8,6,6,6,6,5,6,7,8,
{4}8bV27[4:1],7bV51[4:1],1bV36[4:1],6bV48[4:1],
{16}8bqq5[4:3],,,,1,1,2,2,3,3,,,4,3,2,1,
{16}1bpp5[4:3],,,,8h[16:1],,7,7,6,6,,,5,6,7,8,
{16}8bqq3[4:3],,,,1h[16:1],,2,2,3,3,,,4,3,2,1,
{4}1bs5[4:1],5bV36[4:1],6bz2[4:1],{16}8-4[16:1],,8,8,
{16}8b,,,2-4[16:1],3,,1-5[16:1],2,,8-6[16:1],1,,7-3[16:1],8,,,
{16}7b,,,7-5[16:1],6,,8-4[16:1],7,,1-3[16:1],8,,2-6[16:1],1,,,
{16}2b,,,3-1[16:1],2,,4-8[16:1],3,,5-7[16:1],4,,6V42[4:1],5,,,
{4}6b/2bV85[4:1],5bV37[4:1],7bV58[4:1],1b-5[16:1],
{16}1b,,,3-5[16:1],4,,2-6[16:1],3,,1-7[16:1],2,,8-4[16:1],1,,,
{16}8b,,,6-4[16:1],5,,7-3[16:1],6,,8-6[16:1],7,,1-5[16:1],8,3,2,
{16}1b,,,2-8[16:1],1,,3-7[16:1],2,,4,3,,5s1[4:1],4,3,2,
{4}1bz5[4:1]/5b,5b>3[8:1]*>1[8:2]*>7[8:3]*>5[8:4],,,
{4}1b>1[4:4],5h[8:1],6h[8:1],7h[8:1],
{4}1>1[4:4],7h[8:1],6h[8:1],7h[8:1],
{4}1<1[4:4],5h[8:1],4h[8:1],8h[8:1],
{4}1>7[4:3],7h[8:1],6h[8:1],8h[8:1],
{4}8b<8[4:4],2-7[16:1],2-5[16:1],2,
{4}8<8[4:4],2V46[8:1],2-6[16:1],2,
{4}8>8[4:4],4q7[8:3],4,,
{4}8<2[4:3],1-4[8:1],1-6[8:1],1,
{16}8,7,6,5,8,7,6,5,8,7,6,5,4h[8:1],,2,1,
{16}8,7,6,5,4h[8:1],,1,2,3h[8:1],,1,2,3,4,5,6,
{16}1,2,3,4,5,6,7h[8:1],,4,3,2,1,8,7,6h[8:1],,
{16}2h[16:1],6h[16:1],1h[16:1],5h[16:1],8h[16:1],4h[16:1],7h[16:1],3h[16:1],7,,{32}3-74[16:1]/7-3[16:1],48,15,26,{16}3b/7b,,3b/7b,,
{16}1b/5b,,,,,15,26,37,4V28[4:1]/8V64[4:1],,,,8v3[16:3]/4v7[16:3],,,,
{16},,,,,48,37,26,1>5[4:1]/5<1[4:1],,,,5p7[16:3]/1p3[16:3],,,,
{16},,,,,48,15,26,3p7[4:1]/7p3[4:1],,,,7q2[8:7]/3q6[8:7],,,,
{1},
{8}1h[16:1]/5h[16:1],2h[16:1]/6h[16:1],3h[16:1]/7h[16:1],4h[16:1]/8h[16:1],{32}15,8,7,6,51,4,3,2,15,6,7,8,15,2,3,4,
{16}1b/5b,,,,6,5,4,3,2-5[16:1],5-2[16:1],2-7[16:1],7-2[16:1],6,6,6,6,
{16}6b,,,,3,4,5,6,7-2[16:1],2-7[16:1],7-4[16:1],4-7[16:1],3,3,3,3,
{16}3b,,,,5,4,3,2,1-4[16:1],4>1[16:1],1<6[16:1],6-1[16:1],5,5,5,5,
{16}5b,,,,4,5,6,7,8<5[16:1],5-8[16:1],8>3[16:1],3-8[16:1],4,4,4,4,
{16}4b,,,,6,5,4,3,2<7[16:1],7>2[16:1],2v7[16:1],7v2[16:1],6,6,6,6,
{16}6b,,,,3,4,5,6,7-2[16:1],2<7[16:1],7p2[16:1],2>7[8:1],4,4,4,4,
{16}1b,,,,26,15,84,73,2,1,8,7,62,51,84,73,
{16}6b,5,4,3,2,1,8,7,6/2<2[4:2],5/1<1[4:2],4/8<8[4:2],3/7<7[4:2],6>6[4:2],5>5[4:2],4>4[4:2],3>3[4:2],
