&title=故郷の星が映る海[避]
&artist=ZUN
&des=Yuzukeai
&first=0
&des_7=Yuzukeai
&lv_7=11?
&inote_7=(172)
{1}
,,,,,,,
{8}2x>6[2:6]/6x<2[2:6],,,,,,,,,,,,,,,,,,,,,,,,,,,,,,,,
{8}7x<3[2:6]/3x>7[2:6],,,,,,,,,,,,,,,,,,,,,,,,,,,,,,,,
3xh[1:1],,7!-5m[4:1],,,,,,
4xh[1:1],,1!-5m[4:1],,,,,,
5xh[1:1],,8!-4m[4:1],,,,,,
6xh[1:3],,1!-5m[4:1],,,,,,
3xh[1:2],,2!-4m[4:1]`7!-5m[4:1],,,,,,
,,1!-5m[4:1]`8!-4m[4:1],,,,,,
,,4!>5m[4:3]`5!<4m[4:3],,,,,,,,
,,,,{16}4x,5x,4x,5x,
4x>5[4:3],,,,6h[8:1]m,,5h[8:1]m,,4h[8:1]m,,3h[8:1]m,,2h[8:1]m,,1h[8:1]m,,
4!>5[4:3]`8h[8:1]m,,7h[8:1]m,,6h[8:1]m,,5h[8:1]m,,4h[8:1]m,,3h[8:1]m,,2h[8:1]m,,1h[8:1]m,,
4!>5[4:3]`8h[8:1]m,,7h[8:1]m,,6h[8:1]m,,5h[8:1]m,,4h[8:1]m,,3h[8:1]m,,2h[8:1]m,,1h[8:1]m,,
4!>5[4:3]`8h[8:1]m,,7h[8:1]m,,6h[8:1]m,,5h[8:1]m,,4h[8:1]m,,3h[8:1]m,,2h[8:1]m,,1h[8:1]m,,
4!>5[4:3]`8h[8:1]m,,7h[8:1]m,,6h[8:1]m,,5h[8:1]m,,4h[8:1]m,,3h[8:1]m,,2h[8:1]m,,1h[8:1]m,,
4!>5[4:3]`8h[8:1]m,,7h[8:1]m,,6h[8:1]m,,5h[8:1]m,,4h[8:1]m,,3h[8:1]m,,2h[8:1]m,,1h[8:1]m,,
4!>5p3[4:5]`8m,,,,,,,,,,,,,,,,,,,,,,,,
,,,,,,,,
5x<4[4:3],1m,3m,2m,4m,3m,5m,4m,6m,5m,7m,6m,8m,7m,1m,8m,
5!<4[4:3]`2m,1m,3m,2m,4m,3m,5m,4m,6m,5m,7m,6m,8m,7m,1m,8m,
5!<4[4:3]`2m,1m,3m,2m,4m,3m,5m,4m,6m,5m,7m,6m,8m,7m,1m,8m,
5!<4[4:3]`2m,1m,3m,2m,4m,3m,5m,4m,6m,5m,7m,6m,8m,7m,1m,8m,
5!<4[4:3]`2m,1m,3m,2m,4m,3m,5m,4m,6m,5m,7m,6m,8m,7m,1m,8m,
5!<4[4:3]`2m,1m,3m,2m,4m,3m,5m,4m,6m,5m,7m,6m,8m,7m,1m,8m,
5!w1[4:2]`2m,,,,,,,,,,,,,,,,
{12}
2x,4x,3x,7x,5x,6x,
{32}1xh[1:4],,,,,,,,,,,,,,,,
5m,5m,5m,5m,5m,,,,,,,,,,,,,,,,,,,,
3m,3m,3m,3m,3m,,,,,,,,,,,,,,,,,,,,
8m,8m,8m,8m,8m,,,,,,,,,,,,
4m,4m,4m,4m,4m,,,,,,,,,,,,
6m,6m,6m,6m,6m,,,,,,,,,,,,
5m,5m,5m,5m,5m,,,,,,,,,,,,
2m,2m,2m,2m,2m,,,,,,,,,,,,
{48}
4m/1x,4m,4m,4m,4m,,,,1x,,,,,,,
6m/1x,6m,6m,6m,6m,,,,,
4m/8x,4m,4m,4m,4m,,,,8x,,,,,,,
6m/8x,6m,6m,6m,6m,,,,,
5m/2x,5m,5m,5m,5m,,,,2x,,,,,,,
8m/2x,8m,8m,8m,8m,,,,,
3m/7x,3m,3m,3m,3m,,,,7x,,,,,,,
5m/7x,5m,5m,5m,5m,,,,,
4xh[8:3]/1m,1m,1m,1m,1m,1m,1m,1m,1m,1m,1m,1m,
2m,2m,2m,2m,2m,2m,5xh[8:3]/2m,2m,2m,2m,2m,2m,
3m,3m,3m,3m,3m,3m,3m,3m,3m,3m,3m,3m,
6x/4m,4m,4m,4m,4m,4m,4m,4m,4m,4m,4m,4m,
8xh[8:3]/5m,5m,5m,5m,5m,5m,5m,5m,5m,5m,5m,5m,
6m,6m,6m,6m,6m,6m,1xh[8:3]/6m,6m,6m,6m,6m,6m,
7m,7m,7m,7m,7m,7m,7m,7m,7m,7m,7m,7m,
2x/8m,8m,8m,8m,8m,8m,8m,8m,8m,8m,8m,8m,
2x>7[2:6]`1m,1m,1m,1m,1m,1m,1m,1m,1m,1m,1m,1m,
4m,4m,4m,4m,4m,4m,4m,4m,4m,4m,4m,4m,
6m,6m,6m,6m,6m,6m,6m,6m,6m,6m,6m,6m,
3m,3m,3m,3m,3m,3m,3m,3m,3m,3m,3m,3m,
5m,5m,5m,5m,5m,5m,5m,5m,5m,5m,5m,5m,
7m,7m,7m,7m,7m,7m,7m,7m,7m,7m,7m,7m,
4m,4m,4m,4m,4m,4m,4m,4m,4m,4m,4m,4m,
3m,3m,3m,3m,3m,3m,3m,3m,3m,3m,3m,3m,
2m,2m,2m,2m,2m,2m,2m,2m,2m,2m,2m,2m,
6m,6m,6m,6m,6m,6m,6m,6m,6m,6m,6m,6m,
4m,4m,4m,4m,4m,4m,4m,4m,4m,4m,4m,4m,
8m,8m,8m,8m,8m,8m,8m,8m,8m,8m,8m,8m,
5m,5m,5m,5m,5m,5m,5m,5m,5m,5m,5m,5m,
3m,3m,3m,3m,3m,3m,3m,3m,3m,3m,3m,3m,
6m,6m,6m,6m,6m,6m,6m,6m,6m,6m,6m,6m,
4m,4m,4m,4m,4m,4m,4m,4m,4m,4m,4m,4m,
7x<2[2:6]`2m,2m,2m,2m,2m,2m,2m,2m,2m,2m,2m,2m,
4m,4m,4m,4m,4m,4m,4m,4m,4m,4m,4m,4m,
4m,4m,4m,4m,4m,4m,4m,4m,4m,4m,4m,4m,
8m,8m,8m,8m,8m,8m,8m,8m,8m,8m,8m,8m,
4m,4m,4m,4m,4m,4m,4m,4m,4m,4m,4m,4m,
6m,6m,6m,6m,6m,6m,6m,6m,6m,6m,6m,6m,
7m,7m,7m,7m,7m,7m,7m,7m,7m,7m,7m,7m,
3m,3m,3m,3m,3m,3m,3m,3m,3m,3m,3m,3m,
5m,5m,5m,5m,5m,5m,5m,5m,5m,5m,5m,5m,
1m,1m,1m,1m,1m,1m,1m,1m,1m,1m,1m,1m,
8m,8m,8m,8m,8m,8m,8m,8m,8m,8m,8m,8m,
5m,5m,5m,5m,5m,5m,5m,5m,5m,5m,5m,5m,
3m,3m,3m,3m,3m,3m,3m,3m,3m,3m,3m,3m,
8m,8m,8m,8m,8m,8m,8m,8m,8m,8m,8m,8m,
7m,7m,7m,7m,7m,7m,7m,7m,7m,7m,7m,7m,
3m,3m,3m,3m,3m,3m,3m,3m,3m,3m,3m,3m,
2x>7[2:6]`1m,1m,1m,1m,1m,1m,1m,1m,1m,1m,1m,1m,
4m,4m,4m,4m,4m,4m,4m,4m,4m,4m,4m,4m,
6m,6m,6m,6m,6m,6m,6m,6m,6m,6m,6m,6m,
3m,3m,3m,3m,3m,3m,3m,3m,3m,3m,3m,3m,
5m,5m,5m,5m,5m,5m,5m,5m,5m,5m,5m,5m,
6m,6m,6m,6m,6m,6m,6m,6m,6m,6m,6m,6m,
4m,4m,4m,4m,4m,4m,4m,4m,4m,4m,4m,4m,
8m,8m,8m,8m,8m,8m,8m,8m,8m,8m,8m,8m,
5m,5m,5m,5m,5m,5m,5m,5m,5m,5m,5m,5m,
3m,3m,3m,3m,3m,3m,3m,3m,3m,3m,3m,3m,
7m,7m,7m,7m,7m,7m,7m,7m,7m,7m,7m,7m,
4m,4m,4m,4m,4m,4m,4m,4m,4m,4m,4m,4m,
3m,3m,3m,3m,3m,3m,3m,3m,3m,3m,3m,3m,
2m,2m,2m,2m,2m,2m,2m,2m,2m,2m,2m,2m,
6m,6m,6m,6m,6m,6m,6m,6m,6m,6m,6m,6m,
4m,4m,4m,4m,4m,4m,4m,4m,4m,4m,4m,4m,
7x<2[2:6]`2m,2m,2m,2m,2m,2m,2m,2m,2m,2m,2m,2m,
4m,4m,4m,4m,4m,4m,4m,4m,4m,4m,4m,4m,
4m,4m,4m,4m,4m,4m,4m,4m,4m,4m,4m,4m,
7m,7m,7m,7m,7m,7m,7m,7m,7m,7m,7m,7m,
3m,3m,3m,3m,3m,3m,3m,3m,3m,3m,3m,3m,
5m,5m,5m,5m,5m,5m,5m,5m,5m,5m,5m,5m,
1m,1m,1m,1m,1m,1m,1m,1m,1m,1m,1m,1m,
8m,8m,8m,8m,8m,8m,8m,8m,8m,8m,8m,8m,
4m,4m,4m,4m,4m,4m,4m,4m,4m,4m,4m,4m,
4m,4m,4m,4m,4m,4m,4m,4m,4m,4m,4m,4m,
6m,6m,6m,6m,6m,6m,6m,6m,6m,6m,6m,6m,
5m,5m,5m,5m,5m,5m,5m,5m,5m,5m,5m,5m,
3m,3m,3m,3m,3m,3m,3m,3m,3m,3m,3m,3m,
8m,8m,8m,8m,8m,8m,8m,8m,8m,8m,8m,8m,
7m,7m,7m,7m,7m,7m,7m,7m,7m,7m,7m,7m,
3m,3m,3m,3m,3m,3m,3m,3m,3m,3m,3m,3m,
2x>7[2:6]`1m,1m,1m,1m,1m,1m,1m,1m,1m,1m,1m,1m,
4m,4m,4m,4m,4m,4m,4m,4m,4m,4m,4m,4m,
6m,6m,6m,6m,6m,6m,6m,6m,6m,6m,6m,6m,
3m,3m,3m,3m,3m,3m,3m,3m,3m,3m,3m,3m,
5m,5m,5m,5m,5m,5m,5m,5m,5m,5m,5m,5m,
7m,7m,7m,7m,7m,7m,7m,7m,7m,7m,7m,7m,
4m,4m,4m,4m,4m,4m,4m,4m,4m,4m,4m,4m,
3m,3m,3m,3m,3m,3m,3m,3m,3m,3m,3m,3m,
2m,2m,2m,2m,2m,2m,2m,2m,2m,2m,2m,2m,
6m,6m,6m,6m,6m,6m,6m,6m,6m,6m,6m,6m,
4m,4m,4m,4m,4m,4m,4m,4m,4m,4m,4m,4m,
8m,8m,8m,8m,8m,8m,8m,8m,8m,8m,8m,8m,
5m,5m,5m,5m,5m,5m,5m,5m,5m,5m,5m,5m,
3m,3m,3m,3m,3m,3m,3m,3m,3m,3m,3m,3m,
6m,6m,6m,6m,6m,6m,6m,6m,6m,6m,6m,6m,
4m,4m,4m,4m,4m,4m,4m,4m,4m,4m,4m,4m,
7x<2[2:6]`2m,2m,2m,2m,2m,2m,2m,2m,2m,2m,2m,2m,
4m,4m,4m,4m,4m,4m,4m,4m,4m,4m,4m,4m,
4m,4m,4m,4m,4m,4m,4m,4m,4m,4m,4m,4m,
8m,8m,8m,8m,8m,8m,8m,8m,8m,8m,8m,8m,
4m,4m,4m,4m,4m,4m,4m,4m,4m,4m,4m,4m,
6m,6m,6m,6m,6m,6m,6m,6m,6m,6m,6m,6m,
7m,7m,7m,7m,7m,7m,7m,7m,7m,7m,7m,7m,
3m,3m,3m,3m,3m,3m,3m,3m,3m,3m,3m,3m,
5m,5m,5m,5m,5m,5m,5m,5m,5m,5m,5m,5m,
1m,1m,1m,1m,1m,1m,1m,1m,1m,1m,1m,1m,
8m,8m,8m,8m,8m,8m,8m,8m,8m,8m,8m,8m,
5m,5m,5m,5m,5m,5m,5m,5m,5m,5m,5m,5m,
3m,3m,3m,3m,3m,3m,3m,3m,3m,3m,3m,3m,
8m,8m,8m,8m,8m,8m,8m,8m,8m,8m,8m,8m,
7m,7m,7m,7m,7m,7m,7m,7m,7m,7m,7m,7m,
3m,3m,3m,3m,3m,3m,3m,3m,3m,3m,3m,3m,
2x>6[2:6]/6x<2[2:6]`1m,1m,1m,1m,1m,1m,1m,1m,1m,1m,1m,1m,
4m,4m,4m,4m,4m,4m,4m,4m,4m,4m,4m,4m,
6m,6m,6m,6m,6m,6m,6m,6m,6m,6m,6m,6m,
3m,3m,3m,3m,3m,3m,3m,3m,3m,3m,3m,3m,
8m,8m,8m,8m,8m,8m,8m,8m,8m,8m,8m,8m,
7m,7m,7m,7m,7m,7m,7m,7m,7m,7m,7m,7m,
1m,1m,1m,1m,1m,1m,1m,1m,1m,1m,1m,1m,
8m,8m,8m,8m,8m,8m,8m,8m,8m,8m,8m,8m,
5m,5m,5m,5m,5m,5m,5m,5m,5m,5m,5m,5m,
3m,3m,3m,3m,3m,3m,3m,3m,3m,3m,3m,3m,
7m,7m,7m,7m,7m,7m,7m,7m,7m,7m,7m,7m,
1m,1m,1m,1m,1m,1m,1m,1m,1m,1m,1m,1m,
3m,3m,3m,3m,3m,3m,3m,3m,3m,3m,3m,3m,
3m,3m,3m,3m,3m,3m,3m,3m,3m,3m,3m,3m,
6m,6m,6m,6m,6m,6m,6m,6m,6m,6m,6m,6m,
4m,4m,4m,4m,4m,4m,4m,4m,4m,4m,4m,4m,
7x<3[2:6]/3x>7[2:6]`2m,2m,2m,2m,2m,2m,2m,2m,2m,2m,2m,2m,
4m,4m,4m,4m,4m,4m,4m,4m,4m,4m,4m,4m,
4m,4m,4m,4m,4m,4m,4m,4m,4m,4m,4m,4m,
7m,7m,7m,7m,7m,7m,7m,7m,7m,7m,7m,7m,
3m,3m,3m,3m,3m,3m,3m,3m,3m,3m,3m,3m,
5m,5m,5m,5m,5m,5m,5m,5m,5m,5m,5m,5m,
1m,1m,1m,1m,1m,1m,1m,1m,1m,1m,1m,1m,
8m,8m,8m,8m,8m,8m,8m,8m,8m,8m,8m,8m,
4m,4m,4m,4m,4m,4m,4m,4m,4m,4m,4m,4m,
4m,4m,4m,4m,4m,4m,4m,4m,4m,4m,4m,4m,
6m,6m,6m,6m,6m,6m,6m,6m,6m,6m,6m,6m,
5m,5m,5m,5m,5m,5m,5m,5m,5m,5m,5m,5m,
2m,2m,2m,2m,2m,2m,2m,2m,2m,2m,2m,2m,
8m,8m,8m,8m,8m,8m,8m,8m,8m,8m,8m,8m,
7m,7m,7m,7m,7m,7m,7m,7m,7m,7m,7m,7m,
3m,3m,3m,3m,3m,3m,3m,3m,3m,3m,3m,3m,
{8}2x>6[2:6]/6x<2[2:6],,,,,,,,,,,,,,,,,,,,,,,,,,,,,,,,
{8}7x<3[2:6]/3x>7[2:6],,,,,,,,,,,,,,,,,,,,,,,,,,,,,,,,
3xh[1:1],,7!-5m[4:1],,,,,,
4xh[1:1],,1!-5m[4:1],,,,,,
5xh[1:1],,8!-4m[4:1],,,,,,
6xh[1:3],,1!-5m[4:1],,,,,,
3xh[1:2],,,,,,,,
,,,,,,,,,,,,,,
